<?xml version="1.0" standalone="no"?>
<!DOCTYPE svg PUBLIC "-//W3C//DTD SVG 1.1//EN" "http://www.w3.org/Graphics/SVG/1.1/DTD/svg11.dtd" >
<svg xmlns="http://www.w3.org/2000/svg">
<metadata>Generated by IcoMoon</metadata>
<defs>
<font id="uListing" horiz-adv-x="1024">
<font-face units-per-em="1024" ascent="960" descent="-64" />
<missing-glyph horiz-adv-x="1024" />
<glyph unicode="&#x20;" horiz-adv-x="512" d="" />
<glyph unicode="&#xe900;" glyph-name="535239" horiz-adv-x="900" d="M620.955 283.433c108.974 170.998 95.249 149.661 98.399 154.123 37.917 52.754 60.637 118.649 60.637 189.85 0 0.214 0 0.429-0.001 0.643v-0.033c0 0.013 0 0.028 0 0.042 0 182.252-147.744 329.996-329.996 329.996s-329.996-147.744-329.996-329.996c0-72.504 23.383-139.547 63.018-193.999l-0.656 0.946 96.674-151.686c-103.349-15.75-279.034-63.112-279.034-167.323 0-37.987 24.787-92.136 142.911-134.323 86.911-29.051 186.98-45.812 290.963-45.812 5.668 0 11.325 0.050 16.97 0.149l-0.849-0.012c216.035 0 449.995 60.937 449.995 179.998 0 104.249-175.498 151.536-279.034 167.435zM232.497 468.119l-1.050 1.5c-32.119 43.879-51.394 98.921-51.394 158.465 0 149.115 120.882 269.997 269.997 269.997s269.997-120.882 269.997-269.997c0-58.296-18.475-112.277-49.89-156.406l0.56 0.829c-2.887-3.75 12.187 19.612-220.722-345.821zM449.995-4.001c-235.985 0-389.995 69.374-389.995 119.999 0 34.050 79.124 89.999 254.509 111.786l110.211-172.91c5.412-8.391 14.713-13.868 25.293-13.868s19.881 5.477 25.222 13.75l0.071 0.118 110.211 172.91c175.348-21.825 254.509-77.774 254.509-111.786-0.037-50.174-152.661-119.999-390.033-119.999zM449.995 778.015c-82.842 0-149.998-67.156-149.998-149.998s67.156-149.998 149.998-149.998c82.842 0 149.998 67.156 149.998 149.998v0c0 82.842-67.156 149.998-149.998 149.998v0zM449.995 538.018c-49.705 0-89.999 40.294-89.999 89.999s40.294 89.999 89.999 89.999c49.705 0 89.999-40.294 89.999-89.999v0c0-49.705-40.294-89.999-89.999-89.999v0z" />
<glyph unicode="&#xe901;" glyph-name="711283" horiz-adv-x="843" d="M831.374 664.704l-301.232 285.11c-6.652 6.304-15.658 10.182-25.57 10.186h-467.375c-20.544 0-37.197-16.654-37.197-37.197v0-949.605c0-20.544 16.654-37.197 37.197-37.197v0h768.606c20.544 0 37.197 16.654 37.197 37.197v0 664.495c-0.005 10.629-4.463 20.215-11.61 26.996l-0.016 0.015zM768.606 10.395h-694.211v875.21h415.353l278.858-263.929v-611.176zM668.148 326.871l-90.482 107.869c-6.869 8.141-17.078 13.277-28.486 13.277-20.544 0-37.197-16.654-37.197-37.197 0-9.135 3.293-17.501 8.757-23.976l-0.046 0.056 70.426-83.949-70.426-83.949c-5.774-6.523-9.3-15.152-9.3-24.604 0-20.544 16.654-37.197 37.197-37.197 11.735 0 22.201 5.434 29.019 13.924l0.056 0.073 90.482 107.869c5.415 6.414 8.707 14.774 8.707 23.903s-3.292 17.489-8.753 23.958l0.046-0.055zM322.272 219.002l-70.461 83.949 70.426 83.914c5.418 6.419 8.711 14.785 8.711 23.92 0 20.544-16.654 37.197-37.197 37.197-11.408 0-21.617-5.136-28.441-13.222l-0.046-0.056-90.482-107.869c-5.409-6.416-8.696-14.776-8.696-23.903s3.287-17.486 8.742-23.959l-0.046 0.056 90.482-107.869c6.872-8.149 17.087-13.291 28.504-13.291 20.551 0 37.211 16.66 37.211 37.211 0 9.134-3.291 17.5-8.753 23.976l0.046-0.056zM454.377 519.497c-1.652 0.259-3.557 0.407-5.497 0.407-18.588 0-34.001-13.596-36.836-31.386l-0.028-0.212-54.549-359.505c-0.271-1.687-0.427-3.633-0.427-5.614 0-18.567 13.617-33.954 31.409-36.72l0.209-0.027c1.689-0.268 3.636-0.421 5.62-0.422v0c18.543 0.036 33.899 13.635 36.679 31.403l0.027 0.21 54.549 359.505c0.269 1.68 0.422 3.617 0.422 5.59 0 18.56-13.594 33.946-31.368 36.743l-0.21 0.027zM541.768 674.855v247.807h-74.395v-285.145c0-20.544 16.654-37.197 37.197-37.197v0h301.232v74.535h-264.070z" />
<glyph unicode="&#xe902;" glyph-name="711284" horiz-adv-x="1288" d="M1274.687 481.114l-297.862 315.572c-8.871 9.761-21.617 15.864-35.789 15.864-26.676 0-48.302-21.625-48.302-48.302 0-13.184 5.282-25.134 13.845-33.85l-0.007 0.007 266.573-282.405-266.573-282.459c-8.165-8.633-13.184-20.314-13.184-33.167 0-26.681 21.629-48.311 48.311-48.311 13.828 0 26.299 5.809 35.105 15.121l0.021 0.023 297.862 315.572c8.167 8.632 13.188 20.313 13.188 33.167s-5.021 24.535-13.209 33.19l0.021-0.023zM381.263 165.702l-266.573 282.298 266.573 282.405c7.153 8.371 11.506 19.323 11.506 31.291 0 26.676-21.625 48.302-48.302 48.302-12.89 0-24.601-5.049-33.262-13.277l0.021 0.020-297.862-315.572c-8.167-8.632-13.188-20.313-13.188-33.167s5.021-24.535 13.209-33.19l-0.021 0.023 297.862-315.572c8.705-8.533 20.639-13.8 33.803-13.8 26.676 0 48.302 21.625 48.302 48.302 0 12.27-4.575 23.471-12.112 31.991l0.045-0.051zM722.167 959.463c-2.198 0.354-4.732 0.557-7.314 0.557-24.107 0-44.090-17.661-47.715-40.75l-0.035-0.273-141.686-927.396c-0.354-2.198-0.557-4.732-0.557-7.314 0-24.107 17.661-44.090 40.75-47.715l0.273-0.035c2.19-0.342 4.716-0.537 7.288-0.537 0.023 0 0.045 0 0.068 0h-0.004c24.085 0.018 44.044 17.662 47.676 40.73l0.035 0.273 141.686 927.396c0.354 2.198 0.557 4.732 0.557 7.314 0 24.107-17.661 44.090-40.75 47.715l-0.273 0.035z" />
<glyph unicode="&#xe903;" glyph-name="747327" d="M353.579 960h-235.179c-65.351-0.097-118.303-53.049-118.4-118.391v-235.188c0.097-65.351 53.049-118.303 118.391-118.4h235.188c65.351 0.097 118.303 53.049 118.4 118.391v235.188c-0.097 65.351-53.049 118.303-118.391 118.4h-0.009zM391.979 606.421c0-21.208-17.192-38.4-38.4-38.4v0h-235.179c-21.208 0-38.4 17.192-38.4 38.4v0 235.179c0 21.208 17.192 38.4 38.4 38.4v0h235.179c21.208 0 38.4-17.192 38.4-38.4v0zM904.021 960h-231.979c-66.257-0.073-119.949-53.765-120.021-120.014v-231.986c0.073-66.257 53.765-119.949 120.014-120.021h232.028c66.242 0.073 119.924 53.74 120.021 119.969v232.030c-0.073 66.272-53.789 119.973-120.059 120.021h-0.005zM944.043 608c-0.024-22.078-17.904-39.973-39.974-40.021h-231.984c-22.060 0.048-39.93 17.919-39.979 39.974v232.026c0.049 22.075 17.943 39.954 40.019 39.979h232.024c22.093-0.024 39.997-17.928 40.021-40.019v-0.002zM353.579 407.979h-235.179c-65.351-0.097-118.303-53.049-118.4-118.391v-235.188c0.097-65.351 53.049-118.303 118.391-118.4h235.188c65.351 0.097 118.303 53.049 118.4 118.391v235.188c-0.097 65.351-53.049 118.303-118.391 118.4h-0.009zM391.979 54.4c0-21.208-17.192-38.4-38.4-38.4h-235.179c-21.208 0-38.4 17.192-38.4 38.4v0 235.179c0 21.208 17.192 38.4 38.4 38.4h235.179c21.208 0 38.4-17.192 38.4-38.4v0zM904.021 407.979h-231.979c-66.257-0.073-119.949-53.765-120.021-120.014v-232.028c0.073-66.257 53.765-119.949 120.014-120.021h232.028c66.242 0.073 119.924 53.74 120.021 119.969v231.988c-0.024 66.308-53.759 120.058-120.059 120.107h-0.005zM944.043 55.979c-0.024-22.078-17.904-39.973-39.974-40.021h-231.984c-22.060 0.048-39.93 17.919-39.979 39.974v231.984c0.049 22.075 17.943 39.954 40.019 39.979h232.024c22.093-0.024 39.997-17.928 40.021-40.019v-0.002z" />
<glyph unicode="&#xe904;" glyph-name="992651" d="M512 960c-282.77 0-512-229.23-512-512s229.23-512 512-512c282.77 0 512 229.23 512 512v0c-0.316 282.643-229.358 511.685-511.97 512h-0.030zM512 15.317c-238.964 0-432.683 193.719-432.683 432.683s193.719 432.683 432.683 432.683c238.964 0 432.683-193.719 432.683-432.683v0c-0.291-238.847-193.836-432.391-432.655-432.683h-0.028zM710.315 491.221h-158.635v158.635c-0.722 21.348-18.202 38.379-39.659 38.379s-38.936-17.031-39.657-38.313l-0.002-0.066v-158.635h-158.635c-21.348-0.722-38.379-18.202-38.379-39.659s17.031-38.936 38.313-39.657l0.066-0.002h158.635v-158.635c-0.014-0.388-0.021-0.843-0.021-1.301 0-21.915 17.765-39.68 39.68-39.68s39.68 17.765 39.68 39.68c0 0.458-0.008 0.913-0.023 1.367l0.002-0.066v158.635h158.635c0.388-0.014 0.843-0.021 1.301-0.021 21.915 0 39.68 17.765 39.68 39.68s-17.765 39.68-39.68 39.68c-0.458 0-0.913-0.008-1.367-0.023l0.066 0.002z" />
<glyph unicode="&#xe905;" glyph-name="1665599" horiz-adv-x="1111" d="M1008.958 783.34v46.282c0 0.014 0 0.030 0 0.046 0 71.98-58.351 130.331-130.331 130.331 0 0 0 0 0 0h-748.434c-71.872-0.079-130.114-58.321-130.193-130.185v-763.669c0.079-71.872 58.321-130.114 130.185-130.193h850.448c71.852 0.105 130.068 58.337 130.146 130.185v590.109c-0.059 61.834-43.154 113.586-100.943 126.921l-0.878 0.171zM922.179 829.622v-43.182h-195.544v43.367c0 0.017 0 0.037 0 0.057 0 15.526-2.731 30.415-7.738 44.212l0.286-0.902h159.351c0.014 0 0.030 0 0.046 0 23.969 0 43.406-19.405 43.459-43.362v-0.005zM596.766 872.989c23.966-0.026 43.387-19.447 43.413-43.41v-43.138h-197.58v43.367c-0.020 15.572-2.783 30.493-7.832 44.313l0.288-0.9zM1024.139 65.915c-0.026-23.949-19.421-43.36-43.362-43.413h-850.585c-23.93 0.053-43.314 19.437-43.367 43.362v763.944c0.053 23.946 19.463 43.34 43.41 43.367h182.17c23.966-0.026 43.387-19.447 43.413-43.41v-130.103h624.814c23.966-0.026 43.387-19.447 43.413-43.41v-0.003z" />
<glyph unicode="&#xe906;" glyph-name="1666578" horiz-adv-x="918" d="M376.001-24.028c0-22.097-17.913-40.010-40.010-40.010v0h-175.952c-88.352 0.087-159.952 71.687-160.039 160.031v704.006c0.109 88.323 71.679 159.893 159.991 160.001h491.795c88.323-0.109 159.893-71.679 160.001-159.991v-382.016c0-22.097-17.913-40.010-40.010-40.010s-40.010 17.913-40.010 40.010v382.006c-0.065 44.146-35.835 79.916-79.975 79.981h-491.791c-44.146-0.065-79.916-35.835-79.981-79.975v-704.004c0.044-44.163 35.822-79.954 79.975-80.020h175.958c0.011 0 0.025 0 0.038 0 22.097 0 40.010-17.913 40.010-40.010v0zM611.776 719.979h-411.994c-22.097 0-40.010-17.913-40.010-40.010s17.913-40.010 40.010-40.010v0h411.994c22.097 0 40.010 17.913 40.010 40.010s-17.913 40.010-40.010 40.010v0zM651.786 520.121c0 22.097-17.913 40.010-40.010 40.010v0h-411.994c-22.097 0-40.010-17.913-40.010-40.010s17.913-40.010 40.010-40.010v0h411.994c22.097 0 40.010 17.913 40.010 40.010v0zM199.782 399.977c-22.097 0-40.010-17.913-40.010-40.010s17.913-40.010 40.010-40.010v0h210.377c22.097 0 40.010 17.913 40.010 40.010s-17.913 40.010-40.010 40.010v0zM910.741 107.017c-1.415-1.989-6.235-8.836-9.218-12.584-26.429-34.046-55.451-63.93-87.443-90.347l-0.954-0.765c-45.703-39.953-105.287-65.054-170.676-67.27l-0.456-0.012c-65.845 2.229-125.43 27.329-171.453 67.557l0.321-0.275c-32.93 27.171-61.94 57.042-87.408 89.804l-0.95 1.27c-2.984 3.825-7.65 10.595-9.218 12.584-4.527 6.395-7.237 14.356-7.237 22.95s2.709 16.555 7.321 23.075l-0.084-0.125c1.415 1.989 6.235 8.836 9.218 12.584 26.428 34.047 55.451 63.931 87.442 90.347l0.954 0.765c45.701 39.956 105.286 65.057 170.676 67.27l0.456 0.012c65.846-2.225 125.431-27.327 171.453-67.557l-0.321 0.275c32.946-27.181 61.969-57.065 87.446-89.842l0.95-1.27c2.984-3.825 7.65-10.595 9.218-12.584 4.512-6.384 7.213-14.329 7.213-22.904 0-8.599-2.715-16.563-7.335-23.083l0.084 0.124zM827.317 129.968c-63.61 75.659-125.882 113.986-185.285 113.986s-121.674-38.25-185.285-113.986c63.61-75.659 125.882-113.986 185.285-113.986s121.674 38.327 185.285 113.986zM644.021 205.971c-41.976 0-76.003-34.028-76.003-76.003s34.028-76.003 76.003-76.003c41.976 0 76.003 34.028 76.003 76.003v0c0 0.011 0 0.025 0 0.038 0 41.976-34.028 76.003-76.003 76.003v0z" />
<glyph unicode="&#xe907;" glyph-name="1994760" d="M896 960h-768c-70.692 0-128-57.308-128-128v0-768c0-70.692 57.308-128 128-128v0h768c70.692 0 128 57.308 128 128v0 768c0 70.692-57.308 128-128 128v0zM128 874.667h768c23.564 0 42.667-19.103 42.667-42.667v0-170.667h-853.333v170.667c0 23.564 19.103 42.667 42.667 42.667v0zM640 576v-554.667h-256v554.667zM85.333 64v512h213.333v-554.667h-170.667c-23.564 0-42.667 19.103-42.667 42.667v0zM896 21.333h-170.667v554.667h213.333v-512c0-23.564-19.103-42.667-42.667-42.667v0z" />
<glyph unicode="&#xe908;" glyph-name="2948063" d="M144 960c-79.529 0-144-64.471-144-144s64.471-144 144-144c79.529 0 144 64.471 144 144v0c-0.097 79.49-64.51 143.903-143.991 144h-0.009zM144 736c-44.183 0-80 35.817-80 80s35.817 80 80 80c44.183 0 80-35.817 80-80v0c-0.049-44.163-35.837-79.951-79.995-80h-0.005zM144 592c-79.529 0-144-64.471-144-144s64.471-144 144-144c79.529 0 144 64.471 144 144v0c-0.097 79.49-64.51 143.903-143.991 144h-0.009zM144 368c-44.183 0-80 35.817-80 80s35.817 80 80 80c44.183 0 80-35.817 80-80v0c-0.049-44.163-35.837-79.951-79.995-80h-0.005zM144 224c-79.529 0-144-64.471-144-144s64.471-144 144-144c79.529 0 144 64.471 144 144v0c-0.097 79.49-64.51 143.903-143.991 144h-0.009zM144 0c-44.183 0-80 35.817-80 80s35.817 80 80 80c44.183 0 80-35.817 80-80v0c-0.049-44.163-35.837-79.951-79.995-80h-0.005zM496 672h384c79.529 0 144 64.471 144 144s-64.471 144-144 144v0h-384c-79.529 0-144-64.471-144-144s64.471-144 144-144v0zM496 896h384c44.183 0 80-35.817 80-80s-35.817-80-80-80v0h-384c-44.183 0-80 35.817-80 80s35.817 80 80 80v0zM880 592h-384c-79.529 0-144-64.471-144-144s64.471-144 144-144v0h384c79.529 0 144 64.471 144 144s-64.471 144-144 144v0zM880 368h-384c-44.183 0-80 35.817-80 80s35.817 80 80 80v0h384c44.183 0 80-35.817 80-80s-35.817-80-80-80v0zM880 224h-384c-79.529 0-144-64.471-144-144s64.471-144 144-144v0h384c79.529 0 144 64.471 144 144s-64.471 144-144 144v0zM880 0h-384c-44.183 0-80 35.817-80 80s35.817 80 80 80v0h384c44.183 0 80-35.817 80-80s-35.817-80-80-80v0z" />
<glyph unicode="&#xe909;" glyph-name="3096673" horiz-adv-x="832" d="M752.001 832.009h-176.005v31.998c-0.059 52.992-43.002 95.934-95.988 95.993h-127.997c-52.992-0.059-95.934-43.002-95.993-95.988v-32.004h-176.005c-44.173-0.039-79.972-35.838-80.012-80.008v-112.014c0-17.672 14.326-31.998 31.998-31.998v0h17.334l27.734-580.572c2.436-51.014 44.389-91.452 95.787-91.452 0.036 0 0.072 0 0.108 0h486.029c0.030 0 0.066 0 0.101 0 51.41 0 93.37 40.457 95.78 91.271l0.008 0.216 27.734 580.572h17.334c0.021 0 0.045 0 0.069 0 17.66 0 31.978 14.306 31.998 31.961v112.012c-0.039 44.173-35.838 79.972-80.008 80.012h-0.004zM320.013 864.007c0.020 17.664 14.334 31.978 31.996 31.998h127.993c17.664-0.020 31.978-14.334 31.998-31.996v-32h-191.987zM63.996 751.997c0 8.846 7.171 16.016 16.016 16.016v0h671.989c8.846 0 16.016-7.171 16.016-16.016v0-80.012h-704.022zM690.952 30.468c-0.818-17-14.8-30.472-31.928-30.472-0.012 0-0.024 0-0.037 0h-485.963c-0.010 0-0.023 0-0.035 0-17.128 0-31.11 13.473-31.926 30.399l-0.003 0.073-27.491 577.521h604.873zM416.006 63.991c17.672 0 31.998 14.326 31.998 31.998v0 416.007c0 17.672-14.326 31.998-31.998 31.998s-31.998-14.326-31.998-31.998v-416.007c0-17.672 14.326-31.998 31.998-31.998v0zM575.996 63.991c17.672 0 31.998 14.326 31.998 31.998v0 416.007c0 17.672-14.326 31.998-31.998 31.998s-31.998-14.326-31.998-31.998v0-416.007c0-17.672 14.326-31.998 31.998-31.998v0zM256.017 63.991c17.672 0 31.998 14.326 31.998 31.998v0 416.007c0 17.672-14.326 31.998-31.998 31.998s-31.998-14.326-31.998-31.998v0-416.007c0-17.672 14.326-31.998 31.998-31.998v0z" />
<glyph unicode="&#xe90a;" glyph-name="3781609" d="M904.021 960h-784c-66.257-0.073-119.949-53.765-120.021-120.014v-784.007c0.097-66.238 53.78-119.906 120.015-119.979h784.007c66.223 0.097 119.882 53.755 119.979 119.969v784.009c-0.073 66.242-53.74 119.924-119.969 120.021h-0.009zM120.021 880h784c22.093-0.024 39.997-17.928 40.021-40.019v-587.394l-136.149 136.149c-21.733 21.686-51.733 35.097-84.864 35.097s-63.131-13.41-84.866-35.099l-44.158-44.158-124.16 124.16c-21.731 21.674-51.722 35.075-84.843 35.075s-63.112-13.402-84.845-35.078l-220.157-220.157v591.403c0.024 22.093 17.928 39.997 40.019 40.021h0.002zM904.021 16h-784c-22.060 0.048-39.93 17.919-39.979 39.974v79.45l276.651 276.736c7.246 7.225 17.245 11.693 28.288 11.693s21.042-4.468 28.289-11.694l180.735-180.692 100.736 100.736c7.241 7.236 17.242 11.711 28.288 11.711s21.047-4.475 28.288-11.711l192.725-192.725v-83.413c0-22.112-17.913-40.040-40.019-40.064h-0.002zM648.021 560c0.013 0 0.028 0 0.043 0 66.286 0 120.021 53.735 120.021 120.021s-53.735 120.021-120.021 120.021c-66.286 0-120.021-53.735-120.021-120.021 0-0.015 0-0.030 0-0.045v0.002c0.097-66.223 53.755-119.882 119.969-119.979h0.009zM648.021 720c0.013 0 0.028 0 0.043 0 22.103 0 40.021-17.918 40.021-40.021s-17.918-40.021-40.021-40.021c-22.103 0-40.021 17.918-40.021 40.021v0c0.024 22.078 17.904 39.973 39.974 40.021h0.005z" />
<glyph unicode="&#xe90b;" glyph-name="adjust" horiz-adv-x="1015" d="M1000.269 337.36l-55.923 32.276c-27.24 15.935-45.247 45.047-45.247 78.364s18.007 62.429 44.82 78.133l0.427 0.231 55.923 32.276c9.024 5.283 14.989 14.93 14.989 25.97 0 5.531-1.497 10.713-4.109 15.162l0.077-0.141-120.476 208.717c-5.291 9.034-14.95 15.005-26.003 15.005-5.517 0-10.686-1.488-15.129-4.083l0.142 0.077-55.923-32.276c-12.973-7.614-28.572-12.11-45.221-12.11-49.973 0-90.484 40.511-90.484 90.484 0 0.004 0 0.008 0 0.013v-0.001 64.553c0 16.564-13.428 29.992-29.992 29.992v0h-241.12c-16.564 0-29.992-13.428-29.992-29.992v0-64.595c-0.045-49.939-40.539-90.405-90.484-90.405-16.615 0-32.183 4.478-45.565 12.293l0.429-0.232-55.923 32.276c-4.303 2.529-9.479 4.022-15.003 4.022-11.053 0-20.709-5.979-25.911-14.878l-0.077-0.142-120.264-208.717c-2.535-4.308-4.033-9.489-4.033-15.021 0-11.040 5.965-20.686 14.847-25.893l0.141-0.077 55.923-32.276c27.24-15.935 45.247-45.047 45.247-78.364s-18.007-62.429-44.82-78.133l-0.427-0.231-55.923-32.276c-9.042-5.279-15.020-14.935-15.020-25.988 0-5.524 1.493-10.699 4.099-15.144l-0.077 0.141 120.476-208.717c5.279-9.042 14.935-15.020 25.988-15.020 5.524 0 10.699 1.493 15.144 4.099l-0.141-0.077 55.923 32.276c12.973 7.614 28.572 12.11 45.221 12.11 49.973 0 90.484-40.511 90.484-90.484 0-0.004 0-0.008 0-0.013v0.001-64.637c0-16.564 13.428-29.992 29.992-29.992v0h241.12c16.564 0 29.992 13.428 29.992 29.992v0 64.679c0 0.011 0 0.024 0 0.036 0 49.973 40.511 90.484 90.484 90.484 16.666 0 32.28-4.506 45.689-12.366l-0.426 0.231 55.923-32.276c4.303-2.529 9.479-4.022 15.003-4.022 11.053 0 20.709 5.979 25.911 14.878l0.077 0.142 120.476 208.717c2.478 4.269 3.941 9.395 3.941 14.861 0 11.123-6.055 20.831-15.048 26.009l-0.145 0.077zM853.777 143.575l-29.95 17.301c-21.586 12.681-47.546 20.171-75.255 20.171-83.101 0-150.468-67.367-150.468-150.468 0-0.012 0-0.025 0-0.037v0.002-34.561h-180.967v34.561c0 0.023 0 0.050 0 0.078 0 83.101-67.367 150.468-150.468 150.468-27.709 0-53.668-7.49-75.965-20.555l0.71 0.384-29.95-17.301-90.484 156.771 29.95 17.301c45.316 26.495 75.274 74.915 75.274 130.332s-29.958 103.837-74.563 129.947l-0.711 0.384-29.95 17.301 90.484 156.728 29.95-17.301c21.586-12.681 47.546-20.171 75.255-20.171 83.101 0 150.468 67.367 150.468 150.468 0 0.012 0 0.025 0 0.037v-0.002 34.603h180.967v-34.561c0-0.010 0-0.023 0-0.035 0-83.101 67.367-150.468 150.468-150.468 27.709 0 53.668 7.49 75.965 20.555l-0.71-0.384 29.95 17.301 90.484-156.728-29.95-17.301c-45.316-26.495-75.274-74.915-75.274-130.332s29.958-103.837 74.563-129.947l0.711-0.384 29.95-17.301zM507.622 658.007c-115.972 0-209.986-94.014-209.986-209.986s94.014-209.986 209.986-209.986c115.972 0 209.986 94.014 209.986 209.986v0c-0.144 115.914-94.072 209.842-209.972 209.986h-0.014zM507.622 298.019c-0.012 0-0.027 0-0.042 0-82.844 0-150.002 67.158-150.002 150.002s67.158 150.002 150.002 150.002c82.844 0 150.002-67.158 150.002-150.002v0c-0.096-82.79-67.173-149.882-149.948-150.002h-0.012z" />
<glyph unicode="&#xe90c;" glyph-name="alert" horiz-adv-x="1141" d="M1123.104 137.3l-436.221 755.6c-23.635 40.4-66.811 67.106-116.224 67.106s-92.59-26.706-115.881-66.473l-0.343-0.633-436.269-755.6c-11.303-19.248-17.979-42.394-17.979-67.1 0-74.117 60.083-134.2 134.2-134.2 0.001 0 0.002 0 0.004 0h872.49c0.001 0 0.002 0 0.004 0 74.117 0 134.2 60.083 134.2 134.2 0 24.706-6.676 47.852-18.322 67.733l0.343-0.633zM1065.23 36.531c-11.674-20.255-33.208-33.67-57.876-33.67-0.15 0-0.3 0-0.449 0.001h-872.515c-37.184 0.008-67.324 30.153-67.324 67.338 0 12.397 3.35 24.011 9.194 33.987l-0.172-0.318 436.221 755.6c11.857 20.279 33.526 33.686 58.326 33.686s46.469-13.407 58.154-33.368l0.172-0.318 436.269-755.6c5.745-9.64 9.141-21.258 9.141-33.669s-3.396-24.029-9.31-33.975l0.169 0.307zM537.228 626.307h66.862v-334.311h-66.862v334.311zM570.611 225.134c-24.609 0-44.559-19.95-44.559-44.559s19.95-44.559 44.559-44.559c24.609 0 44.559 19.95 44.559 44.559v0c-0.027 24.598-19.961 44.532-44.556 44.559h-0.003z" />
<glyph unicode="&#xe90d;" glyph-name="check-mark" d="M738.133 610.475c7.246-7.237 11.728-17.239 11.728-28.288s-4.482-21.051-11.728-28.288v0l-268.331-268.331c-7.241-7.236-17.242-11.711-28.288-11.711s-21.047 4.475-28.288 11.711v0l-127.36 127.701c-7.24 7.24-11.717 17.241-11.717 28.288 0 22.094 17.911 40.005 40.005 40.005 11.047 0 21.048-4.478 28.288-11.717l99.456-99.456 240.043 240.085c7.222 7.122 17.145 11.52 28.096 11.52s20.874-4.398 28.101-11.525l-0.005 0.005zM1024 448c0-282.77-229.23-512-512-512s-512 229.23-512 512c0 282.77 229.23 512 512 512v0c0.088 0 0.194 0 0.299 0 282.605 0 511.701-229.096 511.701-511.701 0-0.105 0-0.21 0-0.315v0.016zM944 448c0 238.587-193.413 432-432 432s-432-193.413-432-432c0-238.587 193.413-432 432-432v0c0.076 0 0.166 0 0.256 0 238.446 0 431.744 193.298 431.744 431.744 0 0.090 0 0.18 0 0.27v-0.014z" />
<glyph unicode="&#xe90e;" glyph-name="close" d="M602.606 448.021l402.662 402.662c11.586 11.586 18.752 27.592 18.752 45.271 0 35.359-28.664 64.023-64.023 64.023-17.68 0-33.685-7.166-45.271-18.752l-402.705-402.662-402.705 402.662c-11.586 11.586-27.592 18.752-45.271 18.752-35.359 0-64.023-28.664-64.023-64.023 0-17.68 7.166-33.685 18.752-45.271l402.705-402.662-402.705-402.705c-11.586-11.586-18.752-27.592-18.752-45.271 0-35.359 28.664-64.023 64.023-64.023 17.68 0 33.685 7.166 45.271 18.752l402.705 402.662 402.705-402.705c11.586-11.586 27.592-18.752 45.271-18.752 35.359 0 64.023 28.664 64.023 64.023 0 17.68-7.166 33.685-18.752 45.271v0z" />
<glyph unicode="&#xe90f;" glyph-name="cloud-computing-1" horiz-adv-x="1304" d="M1086.991 620.696c-50.516 196.382-226.002 339.168-434.837 339.168-236.158 0-429.67-182.594-447.058-414.304l-0.090-1.496c-116.719-19.946-204.445-120.358-204.445-241.259 0-135.074 109.499-244.573 244.573-244.573 0.223 0 0.445 0 0.668 0.001h203.777v81.524h-204.028c-90.049 0-163.049 72.999-163.049 163.049s72.999 163.049 163.049 163.049v0c22.512 0 40.762 18.25 40.762 40.762v0c0 0.144 0 0.314 0 0.484 0 202.581 164.224 366.805 366.805 366.805 177.523 0 325.591-126.109 359.505-293.629l0.398-2.354c3.423-17.12 17.204-30.221 34.408-32.586l0.212-0.024c99.435-14.653 174.894-99.389 174.894-201.749 0-112.14-90.567-203.127-202.548-203.807h-163.114v-81.524h163.049c157.375 0.24 284.86 127.872 284.86 285.281 0 133.601-91.837 245.751-215.827 276.767l-1.966 0.416zM624.205 454.006l-163.049-163.049 57.447-57.447 93.753 93.318v-390.882h81.524v390.882l93.318-93.318 57.447 57.447-163.049 163.049c-7.364 7.301-17.503 11.813-28.697 11.813s-21.333-4.512-28.699-11.816l0.003 0.003z" />
<glyph unicode="&#xe910;" glyph-name="cloud-computing" horiz-adv-x="1143" d="M952.204 662.77c-44.252 172.030-197.978 297.111-380.917 297.111-206.875 0-376.391-159.952-391.622-362.93l-0.079-1.311c-102.246-17.473-179.093-105.433-179.093-211.342 0-118.325 95.921-214.246 214.246-214.246 0.195 0 0.39 0 0.585 0.001h178.508v71.415h-178.729c-78.883 0-142.831 63.947-142.831 142.831s63.947 142.831 142.831 142.831v0c19.721 0 35.708 15.987 35.708 35.708v0c0 0.126 0 0.275 0 0.424 0 177.461 143.86 321.321 321.321 321.321 155.51 0 285.217-110.472 314.926-257.219l0.349-2.062c2.998-14.997 15.070-26.474 30.142-28.545l0.186-0.021c87.105-12.836 153.207-87.065 153.207-176.732 0-98.235-79.337-177.94-177.432-178.535h-142.888v-71.415h142.831c137.86 0.21 249.537 112.016 249.537 249.906 0 117.034-80.45 215.278-189.064 242.448l-1.722 0.365zM546.803-53.573l-142.831 142.831 50.324 50.324 82.128-81.747v342.413h71.415v-342.317l81.747 81.747 50.324-50.324-142.831-142.831c-6.455-6.424-15.357-10.396-25.186-10.396-9.782 0-18.645 3.933-25.094 10.304l0.004-0.004z" />
<glyph unicode="&#xe911;" glyph-name="copy" horiz-adv-x="862" d="M541.991-64h-381.98c-88.318 0.102-159.889 71.66-160.011 159.964v542.039c0.102 88.331 71.681 159.909 160.001 160.011h381.989c88.331-0.102 159.909-71.681 160.011-160.001v-542.001c-0.102-88.331-71.681-159.909-160.001-160.011h-0.010zM160.011 717.99c-44.167-0.041-79.962-35.824-80.024-79.982v-541.997c0.061-44.151 35.836-79.926 79.982-79.988h382.022c44.151 0.061 79.926 35.836 79.988 79.982v541.997c-0.061 44.151-35.836 79.926-79.982 79.988h-0.006zM862.013 196.005v603.984c-0.102 88.331-71.681 159.909-160.001 160.011h-444.019c-0.357 0.011-0.777 0.018-1.199 0.018-22.098 0-40.012-17.914-40.012-40.012s17.914-40.012 40.012-40.012c0.422 0 0.841 0.007 1.26 0.019l-0.061-0.001h444.009c44.151-0.061 79.926-35.836 79.988-79.982v-604.026c-0.011-0.357-0.018-0.777-0.018-1.199 0-22.098 17.914-40.012 40.012-40.012s40.012 17.914 40.012 40.012c0 0.422-0.007 0.841-0.019 1.26l0.001-0.061z" />
<glyph unicode="&#xe912;" glyph-name="credit-card" horiz-adv-x="1170" d="M1133.714 301.519c-20.198 0-36.571-16.374-36.571-36.571v0-256h-1024v438.857h402.286c20.198 0 36.571 16.374 36.571 36.571s-16.374 36.571-36.571 36.571v0h-402.286v146.286h402.286c20.198 0 36.571 16.374 36.571 36.571s-16.374 36.571-36.571 36.571v0h-402.286c-40.396 0-73.143-32.747-73.143-73.143v0-658.286c0-40.396 32.747-73.143 73.143-73.143v0h1024c40.396 0 73.143 32.747 73.143 73.143v0 256c0 20.198-16.374 36.571-36.571 36.571v0zM329.143 301.519h-146.286c-20.198 0-36.571-16.374-36.571-36.571s16.374-36.571 36.571-36.571v0h146.286c20.198 0 36.571 16.374 36.571 36.571s-16.374 36.571-36.571 36.571v0zM1148.099 847.36l-256 109.714c-4.269 1.841-9.238 2.912-14.458 2.912s-10.189-1.071-14.701-3.004l0.243 0.093-256-109.714c-13.028-5.772-21.967-18.558-22.040-33.441v-146.295c0-201.24 74.362-318.854 274.383-433.981 5.232-3.036 11.513-4.828 18.213-4.828s12.98 1.792 18.389 4.922l-0.177-0.094c199.924 114.883 274.334 232.546 274.334 433.981v146.286c-0.086 14.927-9.091 27.73-21.951 33.359l-0.236 0.092zM1097.143 667.624c0-168.911-55.881-261.851-219.429-359.863-163.547 98.255-219.429 191.195-219.429 359.863v121.905l219.429 94.11 219.429-94.062zM1010.347 732.574c-6.213 4.947-14.175 7.938-22.836 7.938-11.52 0-21.805-5.291-28.555-13.576l-0.053-0.067-114.981-143.799-45.495 68.267c-6.569 10.398-18 17.204-31.022 17.204-20.198 0-36.571-16.374-36.571-36.571 0-7.931 2.524-15.272 6.814-21.264l-0.075 0.11 73.143-109.714c6.382-9.451 16.832-15.736 28.78-16.332l0.087-0.003h1.512c11.532 0.001 21.817 5.34 28.519 13.68l0.055 0.071 146.286 182.857c4.946 6.188 7.936 14.128 7.936 22.766 0 11.447-5.252 21.667-13.478 28.382l-0.066 0.052z" />
<glyph unicode="&#xe913;" glyph-name="download" horiz-adv-x="1021" d="M978.154 315.099c-23.488 0-42.528-19.041-42.528-42.528v0-251.428h-850.569v251.428c0 23.488-19.041 42.528-42.528 42.528s-42.528-19.041-42.528-42.528v0-294.127c0-23.488 19.041-42.528 42.528-42.528v0h935.626c23.488 0 42.528 19.041 42.528 42.528v0 294.127c0 23.488-19.041 42.528-42.528 42.528v0zM480.359 244.884c7.629-7.853 18.29-12.726 30.089-12.726s22.459 4.873 30.079 12.716l258.711 258.498c7.709 7.704 12.478 18.35 12.478 30.11 0 23.509-19.058 42.567-42.567 42.567-11.749 0-22.387-4.76-30.089-12.457l-186.232-186.019v539.899c0 23.488-19.041 42.528-42.528 42.528s-42.528-19.041-42.528-42.528v0-539.686l-186.232 186.019c-7.706 7.706-18.351 12.472-30.11 12.472-23.517 0-42.582-19.065-42.582-42.582 0-11.759 4.766-22.404 12.472-30.11l258.913-258.701z" />
<glyph unicode="&#xe914;" glyph-name="enter-1" d="M437.333 480h-405.333c-17.673 0-32 14.327-32 32s14.327 32 32 32v0h405.333c17.673 0 32-14.327 32-32s-14.327-32-32-32v0zM277.333 320c-0.004 0-0.009 0-0.015 0-17.673 0-32 14.327-32 32 0 8.851 3.593 16.862 9.401 22.655l137.388 137.388-137.387 137.344c-5.793 5.793-9.376 13.795-9.376 22.635 0 17.679 14.331 32.010 32.010 32.010 8.839 0 16.842-3.583 22.635-9.376v0l160-160c5.795-5.792 9.38-13.794 9.38-22.635s-3.585-16.843-9.38-22.634l-160-160c-5.786-5.799-13.786-9.387-22.624-9.387-0.011 0-0.023 0-0.034 0h0.002zM682.667-64c-47.128 0-85.333 38.205-85.333 85.333v0 768c0.040 37.328 23.885 69.075 57.17 80.881l0.601 0.186 256.341 85.333c7.867 2.612 16.923 4.119 26.332 4.119 47.256 0 85.634-38.013 86.222-85.13l0.001-0.056v-768c-0.047-37.313-23.868-69.050-57.127-80.88l-0.601-0.186-256.427-85.333c-8.118-2.697-17.464-4.257-27.174-4.267h-0.005zM938.667 896c-0.076 0.001-0.166 0.001-0.255 0.001-2.634 0-5.174-0.406-7.56-1.159l0.178 0.048-255.275-85.12c-8.419-3.158-14.322-11.096-14.421-20.425v-768.012c0.704-11.849 10.485-21.191 22.448-21.191 2.327 0 4.571 0.353 6.682 1.009l-0.159-0.043 255.275 85.12c8.412 3.168 14.309 11.1 14.421 20.424v768.014c0 11.782-9.551 21.333-21.333 21.333v0zM373.333 746.667c-17.673 0-32 14.327-32 32v0 64c0.049 64.782 52.551 117.285 117.329 117.333h480.005c17.673 0 32-14.327 32-32s-14.327-32-32-32v0h-480c-29.436-0.049-53.285-23.898-53.333-53.329v-64.005c0-17.673-14.327-32-32-32v0zM629.333 64h-170.667c-64.782 0.049-117.285 52.551-117.333 117.329v64.005c0 17.673 14.327 32 32 32s32-14.327 32-32v0-64c0.049-29.436 23.898-53.285 53.329-53.333h170.672c17.673 0 32-14.327 32-32s-14.327-32-32-32v0z" />
<glyph unicode="&#xe915;" glyph-name="facebook" d="M1024 448c0 282.77-229.23 512-512 512s-512-229.23-512-512c0-282.77 229.23-512 512-512v0c2.987 0 6.016 0 9.003 0v398.592h-109.995v128h109.995v94.592c-0.49 4.612-0.77 9.963-0.77 15.379 0 85.067 68.96 154.027 154.027 154.027 3.919 0 7.805-0.146 11.65-0.434l-0.513 0.031c1.244 0.006 2.716 0.010 4.189 0.010 33.257 0 66.090-1.817 98.405-5.357l-3.991 0.355v-114.389h-67.2c-52.992 0-63.403-25.216-63.403-62.208v-81.621h127.019l-16.597-128h-110.421v-379.008c215.746 63.447 370.577 259.655 370.603 492.030v0.002z" />
<glyph unicode="&#xe916;" glyph-name="files" horiz-adv-x="1116" d="M680.683 960h-578.409c-56.144 0-101.664-45.487-101.717-101.619v-0.005c0-741.351-4.323-695.745 10.553-710.622 216.682-216.543 202.736-203.991 210.453-207.757 10.832-5.439-18.595-3.812 459.119-3.812 56.104 0.053 101.571 45.52 101.624 101.618v820.572c-0.053 56.104-45.52 101.571-101.618 101.624h-0.005zM201.62 59.008l-78.24 78.24h78.24zM710.343 37.81c-0.026-16.37-13.29-29.633-29.657-29.66h-407.148v165.080c0 19.872-16.11 35.982-35.982 35.982v0h-165.034v649.164c0.026 16.37 13.29 29.633 29.657 29.66h578.505c16.37-0.026 29.633-13.29 29.66-29.657v-0.003zM949.014 858.376v-820.567c-0.053-56.104-45.52-101.571-101.618-101.624h-0.005c-19.872 0-35.982 16.11-35.982 35.982s16.11 35.982 35.982 35.982v0c16.37 0.026 29.633 13.29 29.66 29.657v820.57c-0.026 16.37-13.29 29.633-29.657 29.66h-0.003c-19.872 0-35.982 16.11-35.982 35.982s16.11 35.982 35.982 35.982v0c56.104-0.053 101.571-45.52 101.624-101.618v-0.005zM1115.722 858.376v-820.567c-0.053-56.104-45.52-101.571-101.618-101.624h-0.005c-19.872 0-35.982 16.11-35.982 35.982s16.11 35.982 35.982 35.982v0c16.37 0.026 29.633 13.29 29.66 29.657v820.57c-0.026 16.37-13.29 29.633-29.657 29.66h-0.003c-19.872 0-35.982 16.11-35.982 35.982s16.11 35.982 35.982 35.982v0c56.104-0.053 101.571-45.52 101.624-101.618v-0.005z" />
<glyph unicode="&#xe917;" glyph-name="foreign" d="M977.408 960h-372.352c-25.708 0-46.549-20.841-46.549-46.549s20.841-46.549 46.549-46.549v0h260.011l-479.232-479.061c-8.424-8.424-13.635-20.062-13.635-32.917 0-25.71 20.842-46.552 46.552-46.552 12.855 0 24.493 5.211 32.917 13.635l479.232 479.061v-259.968c0-25.708 20.841-46.549 46.549-46.549s46.549 20.841 46.549 46.549v372.352c0 25.709-20.841 46.549-46.549 46.549-0.015 0-0.030 0-0.045 0h0.002zM791.253 494.549c-25.708 0-46.549-20.841-46.549-46.549v0-418.901h-651.605v651.605h418.901c25.708 0 46.549 20.841 46.549 46.549s-20.841 46.549-46.549 46.549h-465.451c-25.708 0-46.549-20.841-46.549-46.549v-744.747c0-25.708 20.841-46.549 46.549-46.549v0h744.704c25.708 0 46.549 20.841 46.549 46.549v0 465.493c0 25.708-20.841 46.549-46.549 46.549v0z" />
<glyph unicode="&#xe918;" glyph-name="home-3" horiz-adv-x="901" d="M889.226 559.543l-426.654 391.112c-6.306 5.784-14.747 9.329-24.017 9.329-9.635 0-18.376-3.83-24.782-10.050l0.009 0.008-403.047-391.075c-6.665-6.47-10.803-15.512-10.809-25.52v-561.805c0-19.629 15.913-35.542 35.542-35.542v0h296.308c19.629 0 35.542 15.913 35.542 35.542v0 260.766h165.925v-260.729c0-19.629 15.913-35.542 35.542-35.542v0h296.308c19.629 0 35.542 15.913 35.542 35.542v0 561.766c0 0.026 0 0.056 0 0.087 0 10.307-4.383 19.591-11.387 26.089l-0.023 0.021zM829.626 7.084h-225.187v260.766c0 19.629-15.913 35.542-35.542 35.542v0h-237.047c-19.629 0-35.542-15.913-35.542-35.542v0-260.729h-225.187v511.174l368.106 357.259 390.324-357.897v-510.424z" />
<glyph unicode="&#xe919;" glyph-name="import" horiz-adv-x="1097" d="M1060.193 959.634h-329.025v-73.117h292.467v-877.401h-950.518v877.401h292.467v73.117h-329.025c-20.191 0-36.558-16.368-36.558-36.558v0-950.518c0-20.191 16.368-36.558 36.558-36.558h1023.634c20.191 0 36.558 16.368 36.558 36.558v0 950.518c0 20.191-16.368 36.558-36.558 36.558v0zM793.865 481.268c-6.691 6.693-15.935 10.833-26.146 10.833-9.912 0-18.914-3.901-25.552-10.252l0.014 0.013-157.429-151.443v593.571c0 20.191-16.368 36.558-36.558 36.558s-36.558-16.368-36.558-36.558v0-593.571l-157.247 151.443c-6.625 6.338-15.626 10.239-25.538 10.239-10.211 0-19.455-4.14-26.146-10.833v0c-6.437-6.441-10.418-15.337-10.418-25.163 0-10.118 4.221-19.25 10.999-25.731l0.013-0.013 219.35-211.262c6.628-6.351 15.638-10.261 25.562-10.261 10.2 0 19.434 4.13 26.123 10.81v0l218.756 210.713c6.847 6.501 11.106 15.67 11.106 25.833 0 9.782-3.945 18.642-10.331 25.076l0.002-0.002z" />
<glyph unicode="&#xe91a;" glyph-name="info" d="M512 960c-282.77 0-512-229.23-512-512s229.23-512 512-512c282.77 0 512 229.23 512 512v0c0 0.088 0 0.194 0 0.299 0 282.605-229.096 511.701-511.701 511.701-0.105 0-0.21 0-0.315 0h0.016zM512 7.424c-243.323 0-440.576 197.253-440.576 440.576s197.253 440.576 440.576 440.576c243.323 0 440.576-197.253 440.576-440.576v0c-0.267-243.216-197.36-440.309-440.55-440.576h-0.026zM512 552.789c-19.723 0-35.712-15.989-35.712-35.712v0-292.907c0-19.723 15.989-35.712 35.712-35.712s35.712 15.989 35.712 35.712v0 292.907c0 19.723-15.989 35.712-35.712 35.712v0zM512 707.584c-19.723 0-35.712-15.989-35.712-35.712v-42.667c0-19.723 15.989-35.712 35.712-35.712s35.712 15.989 35.712 35.712v0 42.667c0 19.723-15.989 35.712-35.712 35.712v0z" />
<glyph unicode="&#xe91b;" glyph-name="mail" d="M1015.211 541.056l-126.379 126.379v262.699c0 16.495-13.372 29.867-29.867 29.867h-693.803c-16.495 0-29.867-13.372-29.867-29.867v0-262.699c-138.283-138.368-135.296-130.987-135.296-147.584v-553.984c0-16.495 13.372-29.867 29.867-29.867v0h964.267c16.495 0 29.867 13.372 29.867 29.867v0c0 4.011 0 554.197 0 556.416-0.659 7.387-3.894 13.913-8.788 18.772l-0.002 0.002zM947.627 523.989l-58.795-41.643v100.267zM828.843 900.011v-460.331l-207.829-147.157c-28.404-20.192-63.795-32.28-102.010-32.28-36.837 0-71.050 11.232-99.401 30.459l0.622-0.398-225.067 153.429v456.277zM135.168 484.523l-58.368 39.723 58.368 58.325zM964.011-4.011h-903.979v467.115l279.979-190.763-164.011-163.968c-5.427-5.427-8.784-12.924-8.784-21.205 0-16.562 13.426-29.989 29.989-29.989 8.281 0 15.778 3.357 21.205 8.784l172.16 172.117c36.26-23.805 80.7-37.97 128.448-37.97s92.188 14.165 129.346 38.523l-0.898-0.553 172.032-172.075c5.427-5.427 12.924-8.784 21.205-8.784 16.562 0 29.989 13.426 29.989 29.989 0 8.281-3.357 15.778-8.784 21.205l-164.608 164.651 266.709 188.843zM305.152 760.021h413.867c16.566 0 29.995 13.429 29.995 29.995s-13.429 29.995-29.995 29.995h-413.867c-16.566 0-29.995-13.429-29.995-29.995s13.429-29.995 29.995-29.995v0zM305.152 619.989h413.867c16.566 0 29.995 13.429 29.995 29.995s-13.429 29.995-29.995 29.995h-413.867c-16.566 0-29.995-13.429-29.995-29.995s13.429-29.995 29.995-29.995v0zM305.152 480h413.867c16.566 0 29.995 13.429 29.995 29.995s-13.429 29.995-29.995 29.995h-413.867c-16.566 0-29.995-13.429-29.995-29.995s13.429-29.995 29.995-29.995v0z" />
<glyph unicode="&#xe91c;" glyph-name="padlock" horiz-adv-x="768" d="M672 576h-32v128c0 141.385-114.615 256-256 256s-256-114.615-256-256v0-128h-32c-53.019 0-96-42.981-96-96v0-448c0-53.019 42.981-96 96-96v0h576c53.019 0 96 42.981 96 96v0 448c0 53.019-42.981 96-96 96v0zM213.344 704c0 94.251 76.405 170.656 170.656 170.656s170.656-76.405 170.656-170.656v0-128h-341.312zM426.688 246.4v-97.184c0-23.567-19.105-42.672-42.672-42.672s-42.672 19.105-42.672 42.672v0 97.184c-25.69 15.031-42.672 42.487-42.672 73.91 0 47.134 38.21 85.344 85.344 85.344s85.344-38.21 85.344-85.344c0-31.423-16.982-58.879-42.269-73.692l-0.403-0.218z" />
<glyph unicode="&#xe91d;" glyph-name="pen" d="M906.486 918.781c-25.512 25.47-60.734 41.221-99.635 41.221s-74.123-15.751-99.637-41.222l-581.977-581.977c-0.256-0.256-0.256-0.555-0.555-0.555-0.555-0.853-1.408-1.664-1.963-2.518s-0.299-0.299-0.299-0.555-0.853-1.408-1.408-2.262-0.256-0.555-0.555-0.853-0.555-1.408-0.853-2.262-0.256-0.256-0.256-0.555l-117.855-354.163c-0.956-2.689-1.508-5.791-1.508-9.022 0-7.722 3.156-14.707 8.247-19.735l0.003-0.003c5.123-5.064 12.169-8.193 19.946-8.193 0.023 0 0.047 0 0.070 0h-0.004c3.231 0.059 6.321 0.569 9.239 1.471l-0.235-0.063 354.163 118.111c0.256 0 0.256 0 0.555 0.256 0.959 0.293 1.793 0.685 2.558 1.176l-0.041-0.024c0.216 0.026 0.407 0.119 0.555 0.257l-0.001-0.001c0.853 0.555 1.963 1.152 2.816 1.707s1.707 1.408 2.56 1.963 0.555 0.299 0.555 0.555 0.853 0.555 1.152 1.109l580.742 580.784c25.521 25.488 41.309 60.718 41.309 99.635s-15.788 74.146-41.307 99.633l-0.002 0.002zM382.24 121.743l-196.283 196.283 491.092 490.836 196.283-196.283zM158.477 265.755l171.364-171.321-257.301-85.682zM943.012 682.9l-29.869-30.168-196.283 196.283 30.168 30.168c15.294 15.277 36.413 24.725 59.738 24.725s44.445-9.448 59.739-24.726l76.805-76.805c15.117-15.311 24.453-36.359 24.453-59.588 0-23.378-9.457-44.547-24.754-59.891l0.002 0.002z" />
<glyph unicode="&#xe91e;" glyph-name="plans" horiz-adv-x="994" d="M948.713 960.041h-903.532c-24.953 0-45.181-20.228-45.181-45.181v0-933.68c0-24.953 20.228-45.181 45.181-45.181v0h903.532c24.953 0 45.181 20.228 45.181 45.181v0 933.639c0 0.012 0 0.027 0 0.041 0 24.953-20.228 45.181-45.181 45.181v0zM903.532 598.637h-135.542c-24.953 0-45.181-20.228-45.181-45.181s20.228-45.181 45.181-45.181v0h135.542v-481.914h-572.234v135.501c0 24.953-20.228 45.181-45.181 45.181s-45.181-20.228-45.181-45.181v0-135.542h-150.575v843.318h150.575v-496.947c0-24.953 20.228-45.181 45.181-45.181s45.181 20.228 45.181 45.181v0 135.542h225.862c24.953 0 45.181 20.228 45.181 45.181s-20.228 45.181-45.181 45.181v0h-225.862v271.043h572.234v-271.043z" />
<glyph unicode="&#xe91f;" glyph-name="plug" horiz-adv-x="838" d="M791.253 742.784h-170.667v170.667c0 25.708-20.841 46.549-46.549 46.549s-46.549-20.841-46.549-46.549v0-170.667h-217.173v170.667c0 25.708-20.841 46.549-46.549 46.549s-46.549-20.841-46.549-46.549v-170.667h-170.667c-25.708 0-46.549-20.841-46.549-46.549s20.841-46.549 46.549-46.549h15.531v-201.685c0.224-180.599 134.374-329.797 308.457-353.627l1.858-0.208v-111.659c0-25.708 20.841-46.549 46.549-46.549s46.549 20.841 46.549 46.549v111.659c175.923 24.057 310.051 173.249 310.272 353.811v201.708h15.531c25.708 0 46.549 20.841 46.549 46.549s-20.841 46.549-46.549 46.549v0zM682.667 448c0-145.674-118.092-263.765-263.765-263.765s-263.765 118.092-263.765 263.765v0 201.685h527.531z" />
<glyph unicode="&#xe920;" glyph-name="search-1" d="M282.88 726.955c-6.843 6.854-16.302 11.094-26.752 11.094s-19.909-4.24-26.751-11.093l-0.001-0.001c-46.573-46.754-75.367-111.247-75.367-182.465 0-9.551 0.518-18.98 1.527-28.262l-0.101 1.149c1.95-19.217 18.026-34.094 37.585-34.133h0.004c1.28 0 2.517 0 3.797 0 19.211 1.985 34.066 18.086 34.066 37.656 0 1.329-0.068 2.642-0.202 3.935l0.014-0.162c-0.674 5.901-1.059 12.74-1.059 19.669 0 50.377 20.337 96.004 53.25 129.119l-0.009-0.009c6.854 6.843 11.094 16.302 11.094 26.752s-4.24 19.909-11.093 26.751l-0.001 0.001zM432.555 960c-238.893 0-432.555-193.661-432.555-432.555s193.661-432.555 432.555-432.555c238.893 0 432.555 193.661 432.555 432.555v0c-0.267 238.786-193.769 432.288-432.53 432.555h-0.025zM432.555 170.667c-0.038 0-0.083 0-0.128 0-197.114 0-356.907 159.793-356.907 356.907s159.793 356.907 356.907 356.907c197.114 0 356.907-159.793 356.907-356.907 0-0.045 0-0.090 0-0.135v0.007c-0.291-196.926-159.852-356.487-356.75-356.779h-0.028zM1012.949 0.597l-274.901 274.901c-6.773 6.446-15.958 10.411-26.070 10.411-20.901 0-37.845-16.944-37.845-37.845 0-10.112 3.966-19.297 10.426-26.086l-0.015 0.016 274.901-274.901c6.909-7.26 16.644-11.775 27.434-11.775 20.901 0 37.845 16.944 37.845 37.845 0 10.79-4.515 20.525-11.76 27.419l-0.016 0.015z" />
<glyph unicode="&#xe921;" d="M226.944 341.205l-35.627-133.077-130.261-2.773c-38.413 70.181-61.005 153.754-61.005 242.604 0 86.017 21.175 167.089 58.596 238.287l-1.346-2.811 115.968-21.333 50.816-115.2c-10.418-29.478-16.437-63.472-16.437-98.872 0-38.385 7.078-75.118 19.999-108.963l-0.703 2.096z" />
<glyph unicode="&#xe922;" d="M1015.040 543.659c5.73-28.751 9.009-61.805 9.009-95.625 0-161.026-74.336-304.69-190.563-398.548l-0.974-0.761-146.091 7.467-20.693 129.067c59.938 35.578 105.837 89.405 130.579 153.731l0.706 2.088h-273.792v202.539h491.776z" />
<glyph unicode="&#xe923;" d="M832.512 48.725v0c-86.924-70.269-198.797-112.805-320.604-112.805-193.921 0-362.662 107.809-449.556 266.761l-1.338 2.673 165.931 135.808c44.566-116.389 155.358-197.53 285.101-197.53 56.64 0 109.667 15.464 155.092 42.399l-1.409-0.773z" />
<glyph unicode="&#xe924;" d="M838.827 842.112l-165.888-135.765c-45.7 28.874-101.316 46.009-160.934 46.009-132.696 0-245.565-84.888-287.265-203.322l-0.654-2.132-166.784 136.533c87.065 165.591 257.905 276.585 454.669 276.585 124.645 0 238.887-44.54 327.678-118.574l-0.821 0.666z" />
<glyph unicode="&#xe925;" glyph-name="twitter-1" horiz-adv-x="1260" d="M1260.308 838.8c-43.313-19.437-93.564-33.776-146.191-40.522l-2.683-0.281c53.554 32.179 93.78 81.874 113.124 141.018l0.514 1.817c-47.162-28.463-102.054-50.163-160.529-61.984l-3.311-0.559c-47.256 50.306-114.203 81.64-188.469 81.64-142.69 0-258.363-115.673-258.363-258.363 0-0.012 0-0.025 0-0.037v0.002c-0.009-0.813-0.014-1.774-0.014-2.735 0-19.904 2.186-39.297 6.331-57.953l-0.33 1.769c-215.368 10.826-404.831 113.248-531.588 268.797l-1.050 1.329c-22.223-37.372-35.359-82.397-35.359-130.491 0-89.17 45.155-167.793 113.846-214.251l0.912-0.582c-43.034 1.239-83.076 12.944-118.013 32.642l1.277-0.662v-2.836c0.16-124.575 88.053-228.576 205.2-253.544l1.7-0.303c-19.717-5.408-42.357-8.515-65.722-8.515-0.71 0-1.42 0.003-2.129 0.009l0.109-0.001c-1.201-0.023-2.617-0.036-4.037-0.036-15.873 0-31.368 1.619-46.329 4.701l1.476-0.254c34.413-103.356 129.009-177.092 241.226-179.955l0.333-0.007c-87.23-68.754-198.717-110.277-319.903-110.277-0.149 0-0.299 0-0.448 0h0.023c-0.935-0.007-2.041-0.010-3.147-0.010-20.713 0-41.121 1.301-61.149 3.826l2.383-0.245c111.317-72.704 247.613-115.952 394.010-115.952 0.828 0 1.657 0.001 2.484 0.004h-0.128c1.456-0.010 3.177-0.016 4.9-0.016 403.331 0 730.296 326.965 730.296 730.296 0 1.723-0.006 3.445-0.018 5.165l0.001-0.265c0 11.395-0.42 22.423-0.945 33.398 51.245 36.907 94.317 81.417 128.536 132.371l1.171 1.851z" />
<glyph unicode="&#xe926;" glyph-name="users-1" horiz-adv-x="1146" d="M929.333 461.063c58.856 52.624 95.728 128.781 95.728 213.549 0 157.984-128.071 286.055-286.055 286.055-62.221 0-119.802-19.865-166.746-53.6l0.854 0.584c-45.967 32.862-103.314 52.544-165.258 52.544-158.037 0-286.151-128.114-286.151-286.151 0-84.46 36.591-160.373 94.786-212.752l0.259-0.23c-129.925-69.606-216.801-204.438-216.801-359.56 0-0.538 0.001-1.077 0.003-1.614v0.083-122.8c0-22.607 18.326-40.933 40.933-40.933h1064.456c0 0 0 0 0.001 0 22.523 0 40.797 18.191 40.932 40.682v123.052c0.002 0.432 0.003 0.944 0.003 1.456 0 155.18-86.94 290.053-214.768 358.57l-2.176 1.065zM736.894 877.608c0.016 0 0.036 0 0.055 0 112.902 0 204.427-91.525 204.427-204.427 0-82.426-48.783-153.459-119.053-185.801l-1.27-0.524c-3.152-1.433-6.305-2.723-9.553-4.108-8.661-3.587-19.068-6.872-29.8-9.298l-1.342-0.255c-2.054-0.43-4.108-0.716-6.161-1.099-10.75-2.158-23.177-3.472-35.883-3.629l-0.131-0.001c-5.445 0-10.938 0.43-16.383 0.908-0.279-0.009-0.608-0.014-0.937-0.014-1.846 0-3.653 0.162-5.41 0.471l0.186-0.027c-24.841 3-47.435 9.96-68.066 20.268l1.197-0.541c-0.764 0.382-1.672 0.334-2.436 0.669-4.108 1.958-8.168 3.678-11.845 5.875 0.334 0.43 0.525 0.86 0.86 1.29 17.944 22.87 32.779 49.307 43.209 77.865l0.637 1.995 1.29 3.439c4.145 11.661 7.903 25.818 10.572 40.355l0.27 1.772c0.382 2.102 0.669 4.108 1.003 6.353 2.37 13.218 3.725 28.434 3.725 43.966s-1.355 30.748-3.953 45.536l0.228-1.569c-0.334 2.149-0.621 4.108-1.003 6.353-2.939 16.31-6.697 30.467-11.456 44.155l0.613-2.027-1.337 3.105c-11.069 30.553-25.904 56.99-44.32 80.487l0.473-0.626c-0.334 0.43-0.525 0.86-0.86 1.29 29.344 17.441 64.689 27.763 102.442 27.798h0.010zM204.666 673.133c-0.001 0.193-0.001 0.422-0.001 0.651 0 112.77 91.418 204.189 204.189 204.189 54.861 0 104.668-21.636 141.355-56.84l-0.070 0.067c2.388-2.293 4.776-4.776 7.021-6.973 6.792-7.115 13.156-14.798 18.959-22.91l0.433-0.637c1.815-2.531 3.439-5.254 5.111-7.881 5.197-7.854 10.22-16.927 14.531-26.394l0.514-1.261c1.003-2.34 1.815-4.776 2.723-7.021 3.879-9.171 7.379-20.119 9.921-31.429l0.252-1.336c0.287-1.242 0.382-2.436 0.621-3.726 2.473-11.581 3.889-24.885 3.889-38.521s-1.416-26.941-4.109-39.776l0.22 1.255c-0.239-1.29-0.334-2.484-0.621-3.726-2.791-12.644-6.291-23.592-10.661-34.087l0.488 1.321c-0.908-2.34-1.672-4.776-2.723-7.021-4.832-10.711-9.855-19.769-15.516-28.368l0.471 0.761c-1.672-2.627-3.296-5.302-5.111-7.881-6.234-8.75-12.599-16.433-19.469-23.629l0.077 0.082c-2.293-2.388-4.776-4.776-7.021-6.973-16.078-15.364-34.761-28.178-55.288-37.686l-1.264-0.525c-3.296-1.528-6.687-2.914-10.078-4.108-8.391-3.509-18.531-6.789-28.978-9.272l-1.399-0.281c-2.579-0.573-5.254-0.908-7.881-1.337-10.013-1.956-21.628-3.181-33.492-3.389l-0.181-0.003h-4.442c-12.044 0.209-23.659 1.434-34.943 3.593l1.27-0.202c-2.627 0.43-5.302 0.764-7.881 1.337-11.846 2.763-21.986 6.043-31.749 10.051l1.371-0.498-10.078 4.108c-71.542 32.869-120.35 103.86-120.459 186.263v0.014zM736.894 17.866h-655.028v82.105c-0.002 0.415-0.003 0.907-0.003 1.398 0 141.133 89.833 261.284 215.438 306.394l2.27 0.712c32.449-13.891 70.209-21.967 109.856-21.967s77.406 8.076 111.724 22.673l-1.868-0.706c15.848-5.809 28.999-11.747 41.657-18.487l-1.775 0.863c8.502-4.394 16.383-9.553 24.55-14.329 5.302-3.296 10.747-6.544 15.857-10.174 7.881-5.588 15.332-11.702 22.688-17.959 4.776-4.108 9.553-8.168 13.804-12.275 6.735-6.4 13.087-13.135 19.105-20.061 4.394-4.776 8.645-10.078 12.705-15.332 5.35-6.878 10.46-13.899 15.237-21.159 4.108-6.161 7.738-12.514 11.32-19.105s7.881-14.090 11.32-21.398 6.448-15.332 9.553-23.165c2.579-6.782 5.302-13.565 7.451-20.491 2.866-9.553 4.776-19.105 6.878-29.136 1.242-5.827 2.818-11.511 3.726-17.386 2.313-14.672 3.665-31.631 3.725-48.896v-81.929zM1064.408 17.866h-245.647v82.105c0 12.801-0.716 25.506-1.863 38.211-0.334 3.678-0.908 7.308-1.29 11.033-1.099 9.027-2.388 18.007-4.108 26.891q-1.099 5.684-2.34 11.415-2.961 13.66-6.83 27.082c-0.86 2.961-1.624 5.923-2.531 8.836-12.516 39.414-29.277 73.699-50.26 104.908l0.92-1.453-1.576 2.34q-10.556 15.666-22.544 30.33l-0.287 0.382c-8.667 10.693-17.304 20.269-26.412 29.373l-0.001 0.001h1.672c10.351-1.432 22.42-2.314 34.671-2.435l0.149-0.001h2.245c11.483 0.109 22.667 0.87 33.659 2.247l-1.419-0.145c3.343 0.43 6.687 1.003 10.030 1.576q13.039 2.006 25.792 5.206c2.436 0.621 4.776 1.194 7.308 1.863 13.141 3.585 24.038 7.383 34.604 11.812l-1.838-0.684c127.977-45.766 217.901-165.968 217.901-307.173 0-0.569-0.001-1.137-0.004-1.705v0.087-81.867z" />
<glyph unicode="&#xe927;" glyph-name="vk" d="M849.744 404.092c-16.554 20.907-11.819 30.208 0 48.896 0 0.213 136.873 189.055 150.953 253.096v0c6.997 23.338 0 40.491-33.834 40.491h-111.871c-1.081 0.086-2.341 0.136-3.613 0.136-20.537 0-38.068-12.875-44.959-30.995l-0.11-0.33c-37.335-85.958-83.492-160.049-138.817-226.21l1.175 1.444c-26.026-25.6-38.058-33.749-52.266-33.749-6.997 0-17.877 8.192-17.877 31.531v217.726c0 27.989-7.979 40.491-31.573 40.491h-176.084c-0.523 0.036-1.134 0.057-1.75 0.057-14.263 0-25.923-11.144-26.748-25.2l-0.003-0.073c0-26.539 40.32-32.64 44.501-107.306v-162.132c0-35.498-6.443-42.027-20.736-42.027-38.058 0-130.431 137.002-185.172 293.801-11.051 30.549-21.76 42.88-50.559 42.88h-111.999c-31.957 0-38.4-14.72-38.4-31.189 0-29.098 38.058-173.78 176.98-364.925 92.586-130.516 222.975-201.215 341.587-201.215 71.296 0 79.999 15.701 79.999 42.666 0 124.671-6.443 136.532 29.269 136.532 16.554 0 45.056-8.192 111.615-71.125 76.117-74.666 88.618-108.074 131.199-108.074h111.957c31.915 0 48.085 15.701 38.784 46.677-21.29 65.151-165.161 199.167-171.647 208.126z" />
<glyph unicode="&#xe928;" glyph-name="XMLID_-1" horiz-adv-x="946" d="M932.81 480.931l-465.455 465.455c-8.438 8.438-20.094 13.656-32.97 13.656-25.751 0-46.626-20.875-46.626-46.626 0-12.875 5.219-24.532 13.656-32.97l432.485-432.407-432.368-432.562c-8.438-8.438-13.656-20.094-13.656-32.97 0-25.751 20.875-46.626 46.626-46.626 12.875 0 24.532 5.219 32.97 13.656l465.455 465.455c8.457 8.429 13.69 20.088 13.69 32.97s-5.233 24.541-13.689 32.968l-0.001 0.001zM558.545 448c-0.001 12.863-5.219 24.506-13.653 32.93v0l-465.455 465.455c-8.438 8.438-20.094 13.656-32.97 13.656-25.751 0-46.626-20.875-46.626-46.626 0-12.875 5.219-24.532 13.656-32.97l432.562-432.446-432.407-432.524c-8.438-8.438-13.656-20.094-13.656-32.97 0-25.751 20.875-46.626 46.626-46.626 12.875 0 24.532 5.219 32.97 13.656l465.455 465.455c8.343 8.409 13.499 19.992 13.499 32.778 0 0.081 0 0.162-0.001 0.243v-0.012z" />
<glyph unicode="&#xe929;" glyph-name="XMLID_103" horiz-adv-x="931" d="M13.653 480.931l465.455 465.455c8.438 8.438 20.094 13.656 32.97 13.656 25.751 0 46.626-20.875 46.626-46.626 0-12.875-5.219-24.532-13.656-32.97l-432.601-432.407 432.485-432.562c8.438-8.438 13.656-20.094 13.656-32.97 0-25.751-20.875-46.626-46.626-46.626-12.875 0-24.532 5.219-32.97 13.656l-465.455 465.455c-8.457 8.429-13.69 20.088-13.69 32.97s5.233 24.541 13.689 32.968l0.001 0.001zM372.364 448c0.001 12.863 5.219 24.506 13.653 32.93v0l465.455 465.455c8.438 8.438 20.094 13.656 32.97 13.656 25.751 0 46.626-20.875 46.626-46.626 0-12.875-5.219-24.532-13.656-32.97l-432.562-432.446 432.446-432.524c8.438-8.438 13.656-20.094 13.656-32.97 0-25.751-20.875-46.626-46.626-46.626-12.875 0-24.532 5.219-32.97 13.656l-465.455 465.455c-8.366 8.413-13.537 20.011-13.537 32.817 0 0.067 0 0.135 0 0.202v-0.010z" />
<glyph unicode="&#xe92a;" glyph-name="--1" horiz-adv-x="1363" d="M555.136 884.565l-518.485-757.376c-20.851-27.545-34.246-61.775-36.623-99.002l-0.028-0.54c0-56.619 45.44-91.648 121.515-91.648h1120.64c75.989 0 121.344 34.987 121.344 91.477-2.387 37.601-15.755 71.677-36.896 99.527l0.331-0.455-518.613 757.717c-26.443 43.817-72.847 73.261-126.293 75.721l-0.341 0.013c-53.733-2.329-100.129-31.689-126.16-74.742l-0.389-0.693z" />
<glyph unicode="&#xe92b;" glyph-name="-54" d="M511.98 156.205c-0.022 0-0.049 0-0.076 0-19.739 0-37.608 8.011-50.533 20.959l-439.595 439.595c-13.437 13.033-21.776 31.255-21.776 51.426 0 39.55 32.062 71.611 71.611 71.611 20.17 0 38.392-8.339 51.408-21.758l388.96-389.002 388.984 388.984c13.033 13.437 31.255 21.776 51.426 21.776 39.55 0 71.611-32.062 71.611-71.611 0-20.17-8.339-38.392-21.758-51.408l-439.612-439.655c-12.921-12.923-30.773-20.917-50.491-20.917-0.056 0-0.113 0-0.17 0h0.009z" />
<glyph unicode="&#xe92c;" glyph-name="-58" horiz-adv-x="1399" d="M1230.746 960l-688.474-688.533-374.509 374.509-167.763-167.763 542.272-542.272 856.237 856.295z" />
<glyph unicode="&#xe92d;" glyph-name="-65" horiz-adv-x="1363" d="M555.136 11.435l-518.571 757.376c-20.843 27.533-34.237 61.748-36.623 98.957l-0.028 0.542c0.085 56.661 45.525 91.691 121.6 91.691h1120.64c75.989 0 121.344-34.987 121.344-91.477-2.441-37.619-15.865-71.69-37.064-99.521l0.328 0.449-518.485-757.717c-26.435-43.806-72.821-73.247-126.249-75.721l-0.343-0.013c-53.733 2.329-100.129 31.689-126.16 74.742l-0.389 0.693z" />
<glyph unicode="&#xe92e;" glyph-name="-313" horiz-adv-x="799" d="M799.189 320.939c-0.267-212.503-172.475-384.696-384.958-384.939h-136.258c-22.574 0-40.875 18.3-40.875 40.875v0 13.611c0 22.574 18.3 40.875 40.875 40.875v0h136.277c1.045-0.014 2.279-0.021 3.515-0.021 159.93 0 289.579 129.649 289.579 289.579s-129.649 289.579-289.579 289.579c-1.236 0-2.47-0.008-3.702-0.023l0.187 0.002h-251.435l173.141-173.141c8.621-8.637 13.952-20.56 13.952-33.728s-5.331-25.091-13.953-33.729l0.001 0.001c-8.752-8.364-20.639-13.511-33.728-13.511s-24.976 5.148-33.747 13.529l0.019-0.018-254.549 254.592c-8.631 8.632-13.969 20.557-13.969 33.728s5.338 25.096 13.969 33.728l254.592 254.592c8.748 8.373 20.636 13.527 33.728 13.527s24.98-5.154 33.746-13.545l-0.018 0.017c8.608-8.635 13.931-20.549 13.931-33.707s-5.322-25.072-13.932-33.708l-173.183-173.183h251.392c212.522-0.243 384.739-172.46 384.981-384.958v-0.023z" />
<glyph unicode="&#xe92f;" glyph-name="-316" d="M914.304 777.131h-73.173v73.173c0 60.583-49.113 109.696-109.696 109.696v0h-621.739c-60.583 0-109.696-49.113-109.696-109.696v0-621.739c0-60.583 49.113-109.696 109.696-109.696v0h73.173v-73.131c0-0.013 0-0.028 0-0.043 0-60.583 49.113-109.696 109.696-109.696h621.739c60.583 0 109.696 49.113 109.696 109.696v0 621.739c0 60.583-49.113 109.696-109.696 109.696v0zM109.696 192c-20.194 0-36.565 16.371-36.565 36.565v0 621.739c0 20.194 16.371 36.565 36.565 36.565v0h621.739c20.194 0 36.565-16.371 36.565-36.565v-621.739c0-20.194-16.371-36.565-36.565-36.565v0zM950.827 45.696c0-20.194-16.371-36.565-36.565-36.565v0h-621.696c-20.194 0-36.565 16.371-36.565 36.565v0 73.173h475.435c60.583 0 109.696 49.113 109.696 109.696v475.435h73.131c20.194 0 36.565-16.371 36.565-36.565v0z" />
<glyph unicode="&#xe930;" glyph-name="-344" horiz-adv-x="584" d="M0 448c0 0.023 0 0.049 0 0.076 0 19.77 8.023 37.667 20.991 50.611l440.321 440.321c12.894 12.507 30.503 20.217 49.913 20.217 39.611 0 71.723-32.111 71.723-71.723 0-19.41-7.71-37.019-20.235-49.931l-389.571-389.571 389.589-389.589c13.458-13.053 21.81-31.304 21.81-51.506 0-39.611-32.111-71.723-71.723-71.723-20.202 0-38.452 8.352-51.488 21.791l-440.338 440.338c-12.969 12.945-20.992 30.842-20.992 50.612 0 0.027 0 0.053 0 0.080v-0.004z" />
<glyph unicode="&#xe931;" glyph-name="degree" horiz-adv-x="1214" d="M341.333 353.185h-151.704c-20.946 0-37.926 16.98-37.926 37.926s16.98 37.926 37.926 37.926v0h113.778v227.556h-113.778c-20.946 0-37.926 16.98-37.926 37.926s16.98 37.926 37.926 37.926v0h151.704c20.946 0 37.926-16.98 37.926-37.926v0-303.407c0-20.946-16.98-37.926-37.926-37.926v0zM606.815 353.185h-75.852c-41.892 0-75.852 33.96-75.852 75.852v0 227.556c0 41.892 33.96 75.852 75.852 75.852v0h113.778c20.946 0 37.926-16.98 37.926-37.926s-16.98-37.926-37.926-37.926v0h-113.778v-75.852h75.852c41.892 0 75.852-33.96 75.852-75.852v0-75.852c0-41.892-33.96-75.852-75.852-75.852v0zM530.963 504.889v-75.852h75.852v75.852zM910.222 353.185h-75.852c-41.892 0-75.852 33.96-75.852 75.852v0 227.556c0 41.892 33.96 75.852 75.852 75.852v0h75.852c41.892 0 75.852-33.96 75.852-75.852v0-227.556c0-41.892-33.96-75.852-75.852-75.852v0zM834.37 656.593v-227.556h75.852v227.556zM341.333 504.889h-151.704c-20.946 0-37.926 16.98-37.926 37.926s16.98 37.926 37.926 37.926v0h151.704c20.946 0 37.926-16.98 37.926-37.926s-16.98-37.926-37.926-37.926v0zM606.815 49.778c-340.271 0-606.815 133.297-606.815 303.407 3.27 67.034 38.035 125.311 89.71 160.703l0.706 0.457c6.551 5.523 15.086 8.88 24.405 8.88 20.974 0 37.976-17.003 37.976-37.976 0-12.585-6.122-23.741-15.55-30.651l-0.106-0.074c-33.752-22.501-56.825-58.736-61.237-100.536l-0.051-0.6c0-107.608 218.099-227.556 530.963-227.556 20.946 0 37.926-16.98 37.926-37.926s-16.98-37.926-37.926-37.926v0zM720.593 55.087c-0.327-0.010-0.711-0.016-1.097-0.016-20.974 0-37.976 17.003-37.976 37.976 0 20.079 15.583 36.518 35.314 37.885l0.119 0.007c239.894 23.008 420.826 118.632 420.826 222.499-4.456 42.402-27.531 78.64-60.784 100.82l-0.504 0.316c-8.905 7.007-14.571 17.785-14.571 29.886 0 20.95 16.983 37.934 37.934 37.934 8.849 0 16.991-3.030 23.444-8.11l-0.081 0.062c52.402-35.807 87.18-94.081 90.397-160.636l0.018-0.473c0-147.507-201.21-270.083-489.396-297.946zM493.037-64c-0.020 0-0.044 0-0.068 0-20.946 0-37.926 16.98-37.926 37.926 0 10.49 4.259 19.985 11.141 26.851l86.978 86.927-86.977 86.926c-6.684 6.839-10.807 16.205-10.807 26.534 0 20.974 17.003 37.976 37.976 37.976 10.329 0 19.695-4.124 26.541-10.814l113.771-113.771c6.868-6.864 11.117-16.349 11.117-26.826s-4.248-19.962-11.117-26.826l-113.778-113.778c-6.865-6.873-16.353-11.125-26.834-11.125-0.006 0-0.012 0-0.018 0h0.001zM1099.852 732.444c-62.838 0-113.778 50.94-113.778 113.778s50.94 113.778 113.778 113.778c62.838 0 113.778-50.94 113.778-113.778v0c0-62.838-50.94-113.778-113.778-113.778v0zM1099.852 884.148c-20.946 0-37.926-16.98-37.926-37.926s16.98-37.926 37.926-37.926c20.946 0 37.926 16.98 37.926 37.926v0c0 20.946-16.98 37.926-37.926 37.926v0z" />
<glyph unicode="&#xe932;" glyph-name="-350" horiz-adv-x="936" d="M29.214 53.167c-0.015 0-0.033 0-0.052 0-3.987 0-7.803 0.73-11.323 2.062l0.22-0.073c-3.765 1.414-6.938 3.659-9.414 6.523l-0.025 0.029c-3.669 3.582-6.388 8.122-7.754 13.215l-0.046 0.203c-0.595 2.127-0.938 4.571-0.938 7.094 0 2.869 0.443 5.635 1.263 8.233l-0.053-0.193 58.388 204.73c0.769 2.713 1.847 5.085 3.225 7.247l-0.065-0.11c1.471 2.303 2.883 4.262 4.393 6.139l-0.103-0.132 643.988 643.559c5.108 5.295 12.266 8.583 20.192 8.583 0.127 0 0.255-0.001 0.382-0.003h-0.019c0.108 0.001 0.235 0.002 0.362 0.002 7.926 0 15.084-3.288 20.184-8.575l146.31-146.31c5.295-5.108 8.583-12.266 8.583-20.192 0-0.127-0.001-0.255-0.003-0.382v0.019c0.001-0.108 0.002-0.235 0.002-0.362 0-7.926-3.288-15.084-8.575-20.184l-0.008-0.008-643.403-644.3c-1.745-1.407-3.703-2.82-5.736-4.127l-0.27-0.163c-2.053-1.299-4.426-2.365-6.947-3.074l-0.191-0.046-204.574-58.31c-1.117-0.374-2.436-0.675-3.796-0.847l-0.105-0.011c-1.134-0.15-2.444-0.236-3.775-0.236-0.113 0-0.225 0.001-0.338 0.002h0.017zM113.773 271.977l-41.695-146.848 146.848 41.734 617.154 617.7-104.569 104.569zM906.911-63.844h-877.698c-16.091 0-29.136 13.044-29.136 29.136s13.044 29.136 29.136 29.136h877.581c16.091 0 29.136-13.044 29.136-29.136s-13.044-29.136-29.136-29.136v0z" />
<glyph unicode="&#xe933;" glyph-name="58406" horiz-adv-x="1066" d="M1030.13 621.761c-14.437 12.719-32.646 21.477-52.746 24.408l-0.555 0.066-243.052 35.312-108.69 220.177c-17.159 34.306-52.026 57.448-92.299 57.448s-75.141-23.143-92.030-56.855l-0.269-0.594-108.423-220.177-243.008-35.312c-50.171-7.413-88.238-50.173-88.238-101.825 0-28.916 11.931-55.046 31.138-73.735l0.023-0.023 175.849-171.407-41.53-242.031c-0.952-5.256-1.496-11.306-1.496-17.482 0-56.814 46.057-102.871 102.871-102.871 17.559 0 34.090 4.399 48.552 12.155l-0.55-0.27 217.335 114.242 217.335-114.242c13.887-7.451 30.383-11.828 47.902-11.828 56.839 0 102.915 46.077 102.915 102.915 0 6.156-0.54 12.186-1.577 18.044l0.091-0.62-41.53 242.031 175.893 171.363c19.161 18.729 31.043 44.835 31.043 73.717 0 30.735-13.456 58.328-34.797 77.208l-0.109 0.095zM981.27 524.975l-194.193-189.352c-5.041-4.925-8.166-11.791-8.166-19.386 0-1.625 0.143-3.216 0.417-4.762l-0.024 0.163 45.839-267.26c0.267-1.425 0.419-3.064 0.419-4.739 0-14.915-12.091-27.006-27.006-27.006-4.658 0-9.040 1.179-12.865 3.255l0.142-0.071-239.854 126.19c-3.657 1.963-8.001 3.116-12.615 3.116s-8.958-1.153-12.76-3.187l0.145 0.071-240.343-126.19c-3.682-2.005-8.065-3.185-12.723-3.185-14.915 0-27.006 12.091-27.006 27.006 0 1.675 0.152 3.314 0.444 4.905l-0.025-0.166 45.839 267.349c0.25 1.383 0.393 2.974 0.393 4.599 0 7.596-3.126 14.462-8.161 19.381l-0.005 0.005-194.193 189.263c-5.039 4.925-8.164 11.789-8.164 19.384 0 13.582 9.993 24.829 23.028 26.791l0.149 0.018 268.37 38.999c8.999 1.35 16.446 6.963 20.317 14.679l0.071 0.156 119.927 243.186c4.525 9.020 13.7 15.103 24.296 15.103s19.772-6.083 24.225-14.947l0.071-0.156 119.927-243.186c3.941-7.873 11.389-13.485 20.238-14.817l0.149-0.018 268.37-38.999c13.239-1.929 23.293-13.204 23.293-26.827 0-7.586-3.118-14.444-8.142-19.363l-0.005-0.005zM798.226-64c-17.68 0.038-34.317 4.472-48.885 12.266l0.559-0.273-216.89 114.020-216.935-114.020c-14.007-7.514-30.645-11.929-48.314-11.929-57.329 0-103.804 46.474-103.804 103.804 0 6.207 0.545 12.288 1.589 18.195l-0.092-0.625 41.441 241.542-175.538 170.918c-19.472 18.884-31.557 45.289-31.557 74.517 0 52.109 38.413 95.247 88.467 102.64l0.565 0.069 242.519 35.223 108.379 219.778c17.306 34.605 52.476 57.949 93.099 57.949s75.793-23.345 92.827-57.35l0.272-0.599 108.467-219.778 242.786-35.223c50.673-7.412 89.145-50.576 89.145-102.725 0-29.152-12.023-55.497-31.38-74.345l-0.023-0.022-175.493-171.052 41.441-241.542c0.955-5.288 1.5-11.375 1.5-17.589 0-57.288-46.388-103.741-103.65-103.848h-0.010zM533.009 64.011h0.4l217.246-114.464c13.726-7.319 30.018-11.617 47.314-11.617 56.421 0 102.16 45.739 102.16 102.16 0 6.018-0.52 11.914-1.518 17.646l0.088-0.61-41.441 242.475 176.16 171.718c18.951 18.561 30.699 44.412 30.699 73.007 0 51.158-37.602 93.533-86.676 100.994l-0.566 0.071-243.452 35.534v0.4l-108.912 220.044c-17.101 33.889-51.634 56.724-91.5 56.724s-74.399-22.835-91.232-56.14l-0.268-0.584-108.912-220.621h-0.444l-243.008-35.312c-49.659-7.515-87.282-49.899-87.282-101.071 0-28.614 11.764-54.481 30.72-73.028l176.178-171.736v-0.444l-41.53-242.031c-0.916-5.137-1.439-11.051-1.439-17.087 0-56.421 45.739-102.16 102.16-102.16 17.335 0 33.661 4.317 47.962 11.936l-0.551-0.268zM798.27 11.821c-4.768 0.014-9.249 1.229-13.16 3.359l0.145-0.072-239.854 126.19c-3.543 1.861-7.74 2.953-12.193 2.953s-8.65-1.092-12.339-3.023l0.147 0.070-239.854-126.19c-3.766-2.058-8.247-3.273-13.010-3.287h-0.004c-8.618 0.023-16.321 3.92-21.463 10.040l-0.035 0.043c-4.058 4.75-6.527 10.963-6.527 17.752 0 1.732 0.161 3.427 0.468 5.070l-0.026-0.17 45.483 267.304c0.238 1.326 0.374 2.852 0.374 4.41 0 7.36-3.034 14.011-7.919 18.771l-0.006 0.005-194.104 189.307c-5.209 5.087-8.44 12.18-8.44 20.028 0 13.997 10.277 25.594 23.697 27.657l0.156 0.020 268.37 38.999c8.704 1.305 15.908 6.732 19.653 14.196l0.069 0.151 119.927 243.186c4.68 9.294 14.145 15.559 25.074 15.559s20.393-6.265 25-15.398l0.073-0.16 119.927-243.186c3.813-7.614 11.017-13.042 19.577-14.329l0.144-0.018 268.37-38.999c13.613-2.049 23.93-13.663 23.93-27.688 0-7.842-3.226-14.931-8.423-20.011l-0.005-0.005-193.971-189.307c-4.891-4.766-7.925-11.417-7.925-18.776 0-1.558 0.136-3.084 0.397-4.567l-0.023 0.157 45.839-267.26c0.281-1.473 0.442-3.168 0.442-4.901 0-6.79-2.469-13.003-6.558-17.79l0.032 0.038c-5.17-6.18-12.874-10.092-21.492-10.127h-0.006zM533.009 146.095c0.001 0 0.001 0 0.002 0 4.757 0 9.238-1.183 13.164-3.272l-0.152 0.074 240.165-126.057c3.536-1.924 7.742-3.058 12.213-3.065h0.002c8.069 0.032 15.277 3.686 20.088 9.42l0.033 0.041c3.795 4.447 6.103 10.263 6.103 16.617 0 1.631-0.152 3.227-0.443 4.773l0.025-0.159-45.839 267.26c-0.254 1.417-0.4 3.048-0.4 4.713 0 7.848 3.23 14.941 8.434 20.022l0.005 0.005 194.193 189.307c4.876 4.763 7.9 11.405 7.9 18.752 0 13.139-9.669 24.019-22.28 25.914l-0.144 0.018-268.726 38.865c-9.285 1.386-16.974 7.166-20.981 15.119l-0.073 0.161-119.927 243.186c-4.377 8.721-13.25 14.602-23.497 14.602s-19.119-5.881-23.428-14.451l-0.069-0.151-119.927-243.186c-4.080-8.113-11.768-13.893-20.9-15.261l-0.154-0.019-268.37-38.999c-12.755-1.912-22.424-12.793-22.424-25.932 0-7.347 3.024-13.989 7.895-18.747l194.331-189.312c5.209-5.087 8.439-12.18 8.439-20.027 0-1.665-0.145-3.296-0.424-4.881l0.024 0.168-45.928-267.304c-0.266-1.387-0.418-2.983-0.418-4.614 0-6.355 2.309-12.17 6.133-16.653l-0.030 0.036c4.844-5.775 12.053-9.429 20.116-9.461h0.005c4.447 0.088 8.597 1.279 12.212 3.31l-0.131-0.067 239.854 126.19c3.712 1.935 8.106 3.070 12.765 3.070 0.197 0 0.393-0.002 0.589-0.006h-0.029z" />
<glyph unicode="&#xe934;" glyph-name="-352" d="M742.4 677.973c3.531 0.003 6.889 0.741 9.931 2.068l-0.161-0.062c3.201 1.353 5.935 3.211 8.235 5.505l102.399 102.399c4.688 4.523 7.599 10.861 7.599 17.879 0 0.164-0.002 0.329-0.005 0.492v-0.025c0.003 0.138 0.004 0.302 0.004 0.465 0 6.976-2.877 13.28-7.508 17.791l-0.005 0.005c-4.501 4.535-10.737 7.343-17.628 7.343-0.163 0-0.325-0.002-0.486-0.005h0.024c-0.138 0.003-0.302 0.004-0.465 0.004-6.976 0-13.28-2.877-17.791-7.508l-0.005-0.005-84.139-84.352-84.48 84.48c-4.458 4.558-10.671 7.384-17.544 7.384-0.132 0-0.264-0.001-0.396-0.003h0.020c-0.1 0.001-0.219 0.002-0.338 0.002-6.935 0-13.198-2.878-17.661-7.504l-0.007-0.007c-4.637-4.516-7.514-10.82-7.514-17.796 0-0.164 0.002-0.327 0.005-0.49v0.024c-0.003-0.138-0.004-0.302-0.004-0.465 0-6.976 2.877-13.28 7.508-17.791l102.405-102.405c2.299-2.293 5.033-4.151 8.067-5.441l0.168-0.063c2.833-1.214 6.131-1.921 9.593-1.921 0.062 0 0.125 0 0.187 0.001h-0.010zM947.2 959.829h-870.4c-0.372 0.007-0.81 0.011-1.249 0.011-20.872 0-39.732-8.613-53.22-22.479l-0.016-0.017c-13.781-13.49-22.325-32.282-22.325-53.070 0-0.438 0.004-0.874 0.011-1.31l-0.001 0.065v-256c-0.008-0.397-0.012-0.864-0.012-1.333 0-20.873 8.614-39.733 22.48-53.221l0.017-0.017c13.504-13.881 32.363-22.493 53.234-22.493 0.38 0 0.759 0.003 1.138 0.009l-0.057-0.001h128v-537.344c0-42.415 34.385-76.8 76.8-76.8v0h665.6c42.415 0 76.8 34.385 76.8 76.8v0 870.4c0.007 0.372 0.011 0.81 0.011 1.249 0 20.872-8.613 39.732-22.479 53.22l-0.017 0.016c-13.49 13.781-32.282 22.325-53.070 22.325-0.438 0-0.874-0.004-1.31-0.011l0.065 0.001zM51.2 627.029v256c-0.001 0.1-0.002 0.219-0.002 0.338 0 6.935 2.878 13.198 7.504 17.661l0.007 0.007c4.57 4.687 10.946 7.595 18.001 7.595 0.031 0 0.063 0 0.094 0h870.395c0.177 0.004 0.384 0.007 0.593 0.007 7.017 0 13.362-2.876 17.921-7.513l0.003-0.004c4.634-4.469 7.512-10.732 7.512-17.668 0-0.119-0.001-0.237-0.003-0.356v0.018-256c0.001-0.1 0.002-0.219 0.002-0.338 0-6.935-2.878-13.198-7.504-17.661l-0.007-0.007c-4.577-4.74-10.989-7.684-18.087-7.684-0.151 0-0.302 0.001-0.453 0.004h-870.377c-0.177-0.004-0.384-0.007-0.593-0.007-7.017 0-13.362 2.876-17.921 7.513l-0.003 0.004c-4.387 4.431-7.097 10.528-7.097 17.258 0 0.293 0.005 0.584 0.015 0.874l-0.001-0.042zM947.2-12.971h-665.6c-14.138 0-25.6 11.462-25.6 25.6v0 537.6h691.2c0.075 0 0.163 0 0.251 0 4.679 0 9.253 0.45 13.681 1.31l-0.449-0.073c4.776 0.882 8.849 1.931 12.811 3.226l-0.694-0.196v-541.867c0.001-0.1 0.002-0.219 0.002-0.338 0-6.935-2.878-13.198-7.504-17.661l-0.007-0.007c-4.57-4.687-10.946-7.595-18.001-7.595-0.031 0-0.063 0-0.094 0h0.005zM844.8 396.629c0.1-0.001 0.219-0.002 0.338-0.002 6.935 0 13.198 2.878 17.661 7.504l0.007 0.007c4.634 4.469 7.512 10.732 7.512 17.668 0 0.119-0.001 0.237-0.003 0.356v-0.018c0.004 0.177 0.007 0.384 0.007 0.593 0 7.017-2.876 13.362-7.513 17.921l-0.004 0.003c-4.439 4.435-10.569 7.177-17.339 7.177-0.234 0-0.468-0.003-0.701-0.010l0.034 0.001h-460.8c-0.1 0.001-0.219 0.002-0.338 0.002-6.935 0-13.198-2.878-17.661-7.504l-0.007-0.007c-4.641-4.563-7.516-10.908-7.516-17.924 0-0.208 0.003-0.416 0.008-0.624l-0.001 0.031c-0.001-0.1-0.002-0.219-0.002-0.338 0-6.935 2.878-13.198 7.504-17.661l0.007-0.007c4.439-4.435 10.569-7.177 17.339-7.177 0.234 0 0.468 0.003 0.701 0.010l-0.034-0.001zM844.8 243.029c0.1-0.001 0.219-0.002 0.338-0.002 6.935 0 13.198 2.878 17.661 7.504l0.007 0.007c4.685 4.476 7.597 10.773 7.597 17.75 0 0.12-0.001 0.24-0.003 0.359v-0.018c0.001 0.1 0.002 0.219 0.002 0.338 0 6.935-2.878 13.198-7.504 17.661l-0.007 0.007c-4.469 4.634-10.732 7.512-17.668 7.512-0.119 0-0.237-0.001-0.356-0.003h-460.867c-0.1 0.001-0.219 0.002-0.338 0.002-6.935 0-13.198-2.878-17.661-7.504l-0.007-0.007c-4.684-4.476-7.596-10.772-7.596-17.749 0-0.090 0-0.18 0.001-0.271v0.014c-0.001-0.1-0.002-0.219-0.002-0.338 0-6.935 2.878-13.198 7.504-17.661l0.007-0.007c4.476-4.685 10.773-7.597 17.75-7.597 0.12 0 0.24 0.001 0.359 0.003h-0.018zM844.8 89.429c14.138 0 25.6 11.462 25.6 25.6v0c0 14.138-11.462 25.6-25.6 25.6v0h-460.8c-14.138 0-25.6-11.462-25.6-25.6v0c0-14.138 11.462-25.6 25.6-25.6v0z" />
<glyph unicode="&#xe935;" glyph-name="117115" d="M981.333 490.667c-23.564 0-42.667-19.103-42.667-42.667v0c-0.076-235.584-191.072-426.533-426.667-426.533-235.641 0-426.667 191.025-426.667 426.667s191.025 426.667 426.667 426.667c131.674 0 249.417-59.647 327.683-153.395l0.552-0.679h-147.243c-23.564 0-42.667-19.103-42.667-42.667s19.103-42.667 42.667-42.667v0h239.488c23.564 0 42.667 19.103 42.667 42.667v0 239.275c0 23.564-19.103 42.667-42.667 42.667s-42.667-19.103-42.667-42.667v0-123.307c-94.017 102.599-228.623 166.69-378.197 166.69-282.982 0-512.384-229.402-512.384-512.384s229.402-512.384 512.384-512.384c282.865 0 512.194 229.213 512.384 512.033v0.018c0 23.564-19.103 42.667-42.667 42.667v0z" />
<glyph unicode="&#xe936;" glyph-name="-353" horiz-adv-x="970" d="M962.224 709.418l-242.577 242.577c-2.427 2.411-5.313 4.364-8.515 5.715l-0.177 0.066c-3.029 1.327-6.558 2.1-10.268 2.102h-512.203c-0.31 0.004-0.676 0.007-1.043 0.007-21.899 0-41.679-9.078-55.78-23.676l-0.021-0.022c-14.621-14.122-23.699-33.902-23.699-55.801 0-0.367 0.003-0.733 0.008-1.098l-0.001 0.055v-323.558c0-0.056-0.001-0.122-0.001-0.188 0-7.389 3.102-14.053 8.075-18.762l0.012-0.011c4.72-4.985 11.384-8.087 18.773-8.087 0.066 0 0.132 0 0.198 0.001h-0.010c0.056 0 0.122-0.001 0.188-0.001 7.389 0 14.053 3.102 18.762 8.075l0.011 0.012c4.795 4.694 7.767 11.233 7.767 18.466 0 0.174-0.002 0.348-0.005 0.521v-0.026 323.8c0 0.056-0.001 0.122-0.001 0.188 0 7.389 3.102 14.053 8.075 18.762l0.012 0.011c4.72 4.985 11.384 8.087 18.773 8.087 0.066 0 0.132 0 0.198-0.001h458.097v-189.008c-0.004-0.31-0.007-0.676-0.007-1.043 0-21.899 9.078-41.679 23.676-55.78l0.022-0.021c14.157-14.884 34.11-24.142 56.226-24.142 0.331 0 0.662 0.002 0.992 0.006h188.958v-620.109c-0.069-14.799-12.047-26.777-26.839-26.845h-701.42c-14.764 0.114-26.696 12.075-26.764 26.839v54.102c-0.069 14.799-12.047 26.777-26.839 26.845h-0.007c-14.833-0.023-26.857-12.018-26.926-26.839v-54.102c-0.004-0.31-0.007-0.676-0.007-1.043 0-21.899 9.078-41.679 23.676-55.78l0.022-0.021c14.122-14.621 33.902-23.699 55.801-23.699 0.367 0 0.733 0.003 1.098 0.008l-0.055-0.001h701.291c44.405 0.183 80.353 36.131 80.536 80.518v673.938c-0.002 3.711-0.775 7.24-2.168 10.438l0.066-0.169c-1.476 3.388-3.495 6.274-5.977 8.686l-0.006 0.006zM700.564 717.503v177.89l205.059-204.937h-177.89c-0.056 0-0.122-0.001-0.188-0.001-7.389 0-14.053 3.102-18.762 8.075l-0.011 0.012c-4.936 4.714-8.005 11.346-8.005 18.696 0 0.022 0 0.045 0 0.067v-0.003zM801.637 331.603l-8.935 9.218q-8.409 8.692-23.166 22.358t-35.618 30.888q-21.064 17.385-47.383 35.821-20.013 13.706-40.025 25.551t-40.43 21.832q-20.215 9.986-40.43 18.153t-40.43 14.474c-0.762 0.374-1.646 0.656-2.575 0.802l-0.053 0.007c-0.982 0.152-1.866 0.435-2.683 0.833l0.055-0.024c-15.827 4.807-35.544 9.298-55.68 12.534l-2.741 0.363c-17.251 2.848-37.13 4.476-57.39 4.476s-40.139-1.628-59.515-4.759l2.125 0.283c-22.852-3.688-42.502-8.246-61.649-13.969l3.39 0.87c-0.762-0.374-1.646-0.656-2.575-0.802l-0.053-0.007c-0.982-0.152-1.866-0.435-2.683-0.833l0.055 0.024q-20.013-6.307-40.43-14.474t-40.43-18.153q-20.215-9.986-40.43-21.832t-40.025-25.551q-26.32-18.436-47.383-35.821t-35.821-31.050q-14.474-13.544-22.924-22.196l-8.975-9.218c-4.241-4.738-6.834-11.029-6.834-17.925 0-0.094 0-0.188 0.001-0.282v0.014c-0.001-0.068-0.001-0.148-0.001-0.228 0-6.896 2.593-13.187 6.856-17.951l-0.023 0.026 8.975-9.218q8.45-8.692 23.166-22.358t35.821-31.050q21.064-17.385 47.383-35.821c20.090-14.081 43.324-28.235 67.444-40.931l3.591-1.722c19.473-10.391 43.015-20.86 67.315-29.755l4.043-1.295c19.704-7.37 43.387-13.936 67.767-18.526l2.783-0.436c20.778-3.974 44.696-6.267 69.141-6.307h0.034c24.492 0.037 48.424 2.331 71.629 6.683l-2.414-0.376c27.163 5.026 50.846 11.591 73.659 19.959l-3.109-0.998c28.343 10.19 51.885 20.659 74.546 32.578l-3.187-1.528c27.728 14.417 50.975 28.571 73.218 44.067l-2.143-1.414q26.32 18.436 47.383 35.821t35.821 31.050q14.757 13.706 23.166 22.358l8.935 9.218c4.217 4.732 6.794 11.005 6.794 17.88 0 0.096-0.001 0.192-0.002 0.287v-0.015c0.002 0.106 0.002 0.232 0.002 0.358 0 6.854-2.561 13.11-6.778 17.863l0.024-0.028zM501.327 460.897c11.854-12.054 21.424-26.397 27.98-42.3l0.321-0.879c6.164-14.858 9.744-32.115 9.744-50.208 0-0.116 0-0.231 0-0.347v0.018c0.003-0.327 0.005-0.714 0.005-1.101 0-18.592-3.869-36.28-10.845-52.304l0.328 0.846c-7.297-16.612-17.147-30.787-29.218-42.722l-0.013-0.013c-12.002-11.99-26.232-21.75-42.016-28.607l-0.879-0.34c-15.228-6.697-32.98-10.595-51.642-10.595-0.28 0-0.559 0.001-0.838 0.003h0.043c-0.327-0.003-0.714-0.005-1.101-0.005-18.592 0-36.28 3.869-52.304 10.845l0.846-0.328c-16.588 7.242-30.749 17.026-42.688 29.023l-0.005 0.005c-11.99 12.002-21.75 26.232-28.607 42.016l-0.34 0.879c-6.648 15.177-10.516 32.866-10.516 51.458 0 0.387 0.002 0.774 0.005 1.16v-0.059c0 0.098 0 0.213 0 0.329 0 18.093 3.58 35.35 10.070 51.101l-0.326-0.893c6.876 16.782 16.446 31.125 28.318 43.197l-0.018-0.018c12.398 3.597 28.391 7.17 44.672 9.894l2.711 0.375c14.876 2.512 32.013 3.948 49.486 3.948s34.61-1.436 51.301-4.196l-1.815 0.248c19.002-3.167 34.973-6.794 50.607-11.221l-3.264 0.79zM404.296 151.49c-0.223-0.001-0.486-0.001-0.75-0.001-25.535 0-50.382 2.947-74.219 8.519l2.196-0.433c-26.342 6.048-48.927 13.284-70.669 22.158l3.030-1.094c-23.768 9.525-43.519 19.157-62.491 29.996l2.453-1.291q-28.018 15.687-50.214 31.090c-19.89 13.517-37.022 26.629-53.397 40.602l0.839-0.698q-22.641 19.447-36.387 32.627 10.512 9.986 26.32 24.258t36.387 29.756q20.538 15.525 45.524 31.575t52.922 30.282c-2.855-8.348-5.464-18.548-7.326-29.007l-0.194-1.315c-1.672-9.395-2.628-20.21-2.628-31.249 0-0.029 0-0.059 0-0.088v0.004c-0.002-0.307-0.003-0.67-0.003-1.033 0-26.15 5.429-51.033 15.222-73.581l-0.462 1.195c10.011-23.332 23.65-43.256 40.43-60.038v0c16.827-16.704 36.736-30.331 58.796-39.947l1.242-0.483c21.391-9.557 46.356-15.122 72.621-15.122 0.267 0 0.534 0.001 0.8 0.002h-0.041c0.331-0.002 0.723-0.003 1.115-0.003 26.16 0 51.030 5.521 73.509 15.462l-1.163-0.459c23.302 10.099 43.211 23.725 60.049 40.441l-0.012-0.011c16.78 16.782 30.418 36.705 39.959 58.812l0.471 1.226c9.331 21.354 14.76 46.237 14.76 72.387 0 0.377-0.001 0.755-0.003 1.132v-0.058c-0.019 11.112-1.004 21.98-2.874 32.542l0.166-1.128c-1.996 11.746-4.552 21.939-7.795 31.82l0.437-1.538q20.013-9.986 38.449-21.064t33.597-21.751c19.797-13.541 36.932-26.823 53.25-41.018l-0.692 0.589q22.641-19.73 36.387-32.91-17.344-16.536-50.78-43.907c-22.822-18.561-48.277-36.222-75.038-51.894l-2.87-1.553c-27.92-16.526-60.337-31.714-94.238-43.768l-3.965-1.23c-33.018-11.916-71.12-18.805-110.832-18.805-0.663 0-1.325 0.002-1.987 0.006h0.102z" />
<glyph unicode="&#xe937;" glyph-name="117221" d="M1011.627 696.021l-251.733 251.733c-7.615 7.705-18.184 12.477-29.867 12.477s-22.252-4.772-29.863-12.473l-0.004-0.004-251.392-251.733c-7.644-7.644-12.371-18.203-12.371-29.867 0-23.327 18.911-42.238 42.238-42.238 11.664 0 22.223 4.728 29.867 12.371l179.2 179.2v-737.152c0-23.564 19.103-42.667 42.667-42.667s42.667 19.103 42.667 42.667v0 737.237l179.2-179.2c7.644-7.644 18.203-12.371 29.867-12.371 23.327 0 42.238 18.911 42.238 42.238 0 11.664-4.728 22.223-12.371 29.867v0zM574.891 259.541c-7.615 7.705-18.184 12.477-29.867 12.477s-22.252-4.772-29.863-12.473l-179.204-179.204v737.28c0 23.564-19.103 42.667-42.667 42.667s-42.667-19.103-42.667-42.667v0-737.152l-179.2 179.2c-7.644 7.644-18.203 12.371-29.867 12.371-23.327 0-42.238-18.911-42.238-42.238 0-11.664 4.728-22.223 12.371-29.867l251.733-251.733c7.615-7.705 18.184-12.477 29.867-12.477s22.252 4.772 29.863 12.473l251.737 251.737c7.653 7.639 12.388 18.2 12.388 29.867s-4.735 22.228-12.387 29.866l-0.001 0.001z" />
<glyph unicode="&#xe938;" glyph-name="-354" horiz-adv-x="1365" d="M682.667 345.828c-2.361 0.010-4.659 0.258-6.878 0.721l0.222-0.039c-2.551 0.521-4.778 1.208-6.909 2.083l0.253-0.092-648.704 272.839c-6.247 2.713-11.348 7.081-14.883 12.556l-0.079 0.131c-3.566 5.353-5.691 11.932-5.691 19.007 0 0.118 0.001 0.236 0.002 0.353v-0.018c0 6.96 2.126 13.423 5.764 18.776l-0.075-0.117c3.628 5.612 8.749 9.983 14.804 12.603l0.215 0.083 648.533 272.668c3.956 1.729 8.56 2.768 13.397 2.844h0.029c4.808-0.033 9.379-1.013 13.547-2.761l-0.235 0.087 648.533-272.668c6.27-2.703 11.391-7.074 14.94-12.556l0.079-0.13c3.563-5.236 5.689-11.7 5.689-18.66v0c0.001-0.1 0.002-0.217 0.002-0.335 0-7.075-2.124-13.654-5.77-19.134l0.080 0.127c-3.628-5.612-8.749-9.983-14.804-12.603l-0.215-0.083-648.533-272.839c-1.878-0.783-4.105-1.47-6.41-1.948l-0.246-0.043c-1.973-0.475-4.259-0.782-6.605-0.852l-0.051-0.001zM122.027 653.028l560.64-235.691 560.64 235.975-560.64 236.032zM682.667 141.369c-2.361 0.010-4.659 0.258-6.878 0.721l0.222-0.039c-2.551 0.521-4.778 1.208-6.909 2.083l0.253-0.092-648.704 272.668c-8.336 3.511-14.766 10.164-17.903 18.437l-0.074 0.222c-1.687 3.833-2.669 8.301-2.669 12.999s0.982 9.166 2.751 13.211l-0.083-0.212c3.341 8.625 10.035 15.318 18.44 18.584l0.22 0.075c3.833 1.687 8.301 2.669 12.999 2.669s9.166-0.982 13.211-2.751l-0.212 0.083 635.335-268.004 635.335 268.004c3.833 1.687 8.301 2.669 12.999 2.669s9.166-0.982 13.211-2.751l-0.212 0.083c8.625-3.341 15.318-10.035 18.584-18.44l0.075-0.22c1.687-3.833 2.669-8.301 2.669-12.999s-0.982-9.166-2.751-13.211l0.083 0.212c-3.211-8.496-9.641-15.148-17.764-18.58l-0.213-0.080-648.704-272.668c-1.878-0.783-4.105-1.47-6.41-1.948l-0.246-0.043c-1.997-0.425-4.295-0.673-6.648-0.683h-0.008zM682.667-63.772c-2.361 0.010-4.659 0.258-6.878 0.721l0.222-0.039c-2.551 0.521-4.778 1.208-6.909 2.083l0.253-0.092-648.533 273.067c-8.336 3.511-14.766 10.164-17.903 18.437l-0.074 0.222c-1.687 3.833-2.669 8.301-2.669 12.999s0.982 9.166 2.751 13.211l-0.083-0.212c3.341 8.625 10.035 15.318 18.44 18.584l0.22 0.075c3.614 1.583 7.826 2.504 12.254 2.504 5.004 0 9.733-1.177 13.925-3.269l-0.181 0.082 635.164-267.264 635.335 267.378c4.012 2.010 8.741 3.187 13.744 3.187 4.427 0 8.639-0.921 12.455-2.582l-0.202 0.078c8.625-3.341 15.318-10.035 18.584-18.44l0.075-0.22c1.687-3.833 2.669-8.301 2.669-12.999s-0.982-9.166-2.751-13.211l0.083 0.212c-3.211-8.496-9.641-15.148-17.764-18.58l-0.213-0.080-648.533-273.067c-1.878-0.783-4.105-1.47-6.41-1.948l-0.246-0.043c-2.037-0.47-4.388-0.758-6.799-0.796h-0.028z" />
<glyph unicode="&#xe939;" glyph-name="414646" horiz-adv-x="801" d="M798.47-16.917l-82.946 184.357c50.6 19.789 85.803 68.133 85.884 124.709v534.282c0 73.768-59.8 133.568-133.568 133.568v0h-534.272c-73.768 0-133.568-59.8-133.568-133.568v0-534.272c0.066-56.6 35.274-104.96 84.975-124.439l0.909-0.314-82.946-184.357c-1.859-4.028-2.943-8.741-2.943-13.707 0-18.444 14.952-33.396 33.396-33.396 13.478 0 25.091 7.984 30.368 19.481l0.086 0.208 31.322 69.389h611.074l31.222-69.355c5.362-11.705 16.975-19.689 30.454-19.689 18.444 0 33.396 14.952 33.396 33.396 0 4.966-1.084 9.679-3.028 13.915l0.086-0.208zM133.602 893.216h534.272c36.884 0 66.784-29.9 66.784-66.784v0h-667.841c0 36.884 29.9 66.784 66.784 66.784v0zM718.697 759.648l-98.473-246.133c-5.037-12.366-16.936-20.937-30.846-21.004h-155.281v267.136zM367.312 759.648v-267.136h-155.273c-13.971 0.009-25.934 8.597-30.907 20.781l-0.081 0.223-98.306 246.133zM125.22 91.807l30.053 66.784h490.863l30.053-66.784zM667.841 225.375h-534.272c-36.884 0-66.784 29.9-66.784 66.784v0 327.509l52.392-130.93c15.025-37.223 50.856-63.011 92.71-63.011 0.054 0 0.108 0 0.162 0h377.322c0.089 0 0.195 0 0.3 0 41.842 0 77.664 25.773 92.457 62.309l0.239 0.668 52.392 130.964v-327.509c0 0 0 0 0 0 0-36.884-29.9-66.784-66.784-66.784-0.047 0-0.094 0-0.141 0h0.007zM634.449 358.943h-66.784c-18.442 0-33.392-14.95-33.392-33.392s14.95-33.392 33.392-33.392v0h66.784c18.442 0 33.392 14.95 33.392 33.392s-14.95 33.392-33.392 33.392v0zM233.744 358.943h-66.784c-18.442 0-33.392-14.95-33.392-33.392s14.95-33.392 33.392-33.392v0h66.784c18.442 0 33.392 14.95 33.392 33.392s-14.95 33.392-33.392 33.392v0z" />
<glyph unicode="&#xe93a;" glyph-name="-355" d="M979.456 915.456c13.865-13.794 25.045-30.27 32.699-48.588l0.367-0.991c7.259-17.173 11.478-37.14 11.478-58.092 0-0.142 0-0.284-0.001-0.426v0.022c0.001-0.149 0.001-0.325 0.001-0.502 0-20.864-4.235-40.739-11.893-58.812l0.372 0.989c-8.068-19.203-19.241-35.588-33.058-49.315l-499.72-499.848c-1.324-1.314-2.808-2.472-4.417-3.44l-0.105-0.059c-1.409-0.876-3.050-1.72-4.76-2.432l-0.232-0.086-281.899-102.656c-1.24-0.629-2.685-1.068-4.211-1.232l-0.055-0.005c-1.408-0.163-3.041-0.256-4.694-0.256-0.045 0-0.089 0-0.134 0h0.007c-0.040 0-0.086 0-0.133 0-3.375 0-6.599 0.642-9.558 1.811l0.176-0.061c-3.337 1.373-6.177 3.324-8.527 5.753l-0.007 0.007c-3.248 3.289-5.614 7.457-6.707 12.115l-0.034 0.173c-0.453 1.761-0.713 3.782-0.713 5.865 0 3.009 0.543 5.892 1.536 8.555l-0.055-0.169 102.699 282.539c0.707 1.785 1.509 3.317 2.45 4.749l-0.060-0.098c1.073 1.598 2.224 2.994 3.498 4.266v0l499.968 500.224c13.945 13.75 30.483 24.912 48.809 32.681l1.025 0.386c17.084 7.286 36.959 11.521 57.823 11.521 0.176 0 0.353 0 0.529-0.001h-0.027c0.149 0.001 0.325 0.001 0.502 0.001 20.864 0 40.739-4.235 58.812-11.893l-0.989 0.372c19.169-8.078 35.525-19.249 49.228-33.057l0.009-0.010zM861.269 653.568l-143.189 143.189-414.123-413.611-81.621-224.811 224.811 81.579zM943.403 735.701c9.018 9.288 16.371 20.252 21.539 32.372l0.263 0.695c4.91 11.333 7.765 24.532 7.765 38.398 0 0.001 0 0.002 0 0.003v0c0 0.116 0.001 0.254 0.001 0.391 0 13.952-2.856 27.236-8.014 39.301l0.248-0.653c-5.342 12.665-12.706 23.476-21.801 32.553l-0.002 0.002c-9.221 9.28-20.201 16.799-32.399 22.018l-0.668 0.254c-11.333 4.91-24.532 7.765-38.398 7.765-0.001 0-0.002 0-0.003 0v0c-0.116 0-0.254 0.001-0.391 0.001-13.952 0-27.236-2.856-39.301-8.014l0.653 0.248c-12.722-5.382-23.55-12.913-32.525-22.241l-0.030-0.031-46.080-45.568 143.189-143.189zM897.323-64h-820.224c-0.374-0.007-0.815-0.011-1.257-0.011-20.904 0-39.793 8.63-53.297 22.521l-0.017 0.017c-13.903 13.434-22.535 32.247-22.535 53.076 0 0.361 0.003 0.721 0.008 1.080l-0.001-0.054v820.693c-0.004 0.292-0.007 0.638-0.007 0.984 0 20.828 8.632 39.641 22.513 53.055l0.021 0.020c13.511 13.834 32.349 22.413 53.192 22.413 0.485 0 0.969-0.005 1.451-0.014l-0.072 0.001h512.768c0.095 0.001 0.207 0.002 0.32 0.002 6.941 0 13.21-2.877 17.679-7.504l0.007-0.007c4.634-4.476 7.511-10.745 7.511-17.686 0-0.112-0.001-0.225-0.002-0.337v0.017c0.001-0.095 0.002-0.207 0.002-0.32 0-6.941-2.877-13.21-7.504-17.679l-0.007-0.007c-4.476-4.634-10.745-7.511-17.686-7.511-0.112 0-0.225 0.001-0.337 0.002h-512.751c-0.171 0.004-0.373 0.007-0.575 0.007-7.022 0-13.373-2.875-17.939-7.513l-0.003-0.003c-4.634-4.476-7.511-10.745-7.511-17.686 0-0.112 0.001-0.225 0.002-0.337v0.017-820.608c-0.001-0.095-0.002-0.207-0.002-0.32 0-6.941 2.877-13.21 7.504-17.679l0.007-0.007c4.569-4.641 10.92-7.516 17.942-7.516 0.202 0 0.404 0.002 0.605 0.007l-0.030-0.001h820.224c14.138 0 25.6 11.462 25.6 25.6v0 512.64c-0.001 0.095-0.002 0.207-0.002 0.32 0 6.941 2.877 13.21 7.504 17.679l0.007 0.007c4.476 4.634 10.745 7.511 17.686 7.511 0.112 0 0.225-0.001 0.337-0.002h-0.017c0.171 0.004 0.373 0.007 0.575 0.007 7.022 0 13.373-2.875 17.939-7.513l0.003-0.003c4.634-4.476 7.511-10.745 7.511-17.686 0-0.112-0.001-0.225-0.002-0.337v0.017-512.725c0 0 0 0 0-0.001 0-42.415-34.385-76.8-76.8-76.8-0.105 0-0.21 0-0.315 0.001h0.016z" />
<glyph unicode="&#xe93b;" glyph-name="446026" horiz-adv-x="1128" d="M274.405 484.998h-237.595c-20.33 0-36.81-16.48-36.81-36.81v0-475.613c0-20.33 16.48-36.81 36.81-36.81v0h237.595c20.33 0 36.81 16.48 36.81 36.81v0 475.425c0 0.056 0 0.122 0 0.188 0 20.33-16.48 36.81-36.81 36.81 0 0 0 0 0 0v0zM237.595 9.808h-164.022v401.617h164.022zM682.933 960h-237.595c-20.33 0-36.81-16.48-36.81-36.81v0-950.38c0-20.33 16.48-36.81 36.81-36.81v0h237.595c20.33 0 36.81 16.48 36.81 36.81v0 950.38c0 20.33-16.48 36.81-36.81 36.81v0zM646.123 9.573h-164.022v876.855h164.022zM1091.508 722.405h-237.595c-20.33 0-36.81-16.48-36.81-36.81v0-712.832c0-20.33 16.48-36.81 36.81-36.81v0h237.595c20.33 0 36.81 16.48 36.81 36.81v0 712.832c0 20.33-16.48 36.81-36.81 36.81v0zM1054.698 9.573h-164.022v639.354h164.022z" />
<glyph unicode="&#xe93c;" glyph-name="-356" horiz-adv-x="862" d="M781.816-64h-701.256c-0.314-0.005-0.685-0.007-1.056-0.007-21.893 0-41.667 9.073-55.767 23.665l-0.021 0.022c-14.677 14.13-23.794 33.946-23.794 55.892 0 0.348 0.002 0.695 0.007 1.042l-0.001-0.053v862.879c-0.005 0.314-0.007 0.685-0.007 1.056 0 21.893 9.073 41.667 23.665 55.767l0.022 0.021c14.13 14.678 33.947 23.794 55.892 23.794 0.373 0 0.745-0.003 1.117-0.008l-0.056 0.001h701.256c0.314 0.005 0.685 0.007 1.056 0.007 21.893 0 41.667-9.073 55.767-23.665l0.021-0.022c14.613-14.121 23.687-33.895 23.687-55.789 0-0.371-0.003-0.742-0.008-1.112l0.001 0.056v-862.987c-0.183-44.406-36.121-80.357-80.505-80.56h-0.019zM80.56 906.173c-0.099 0.001-0.217 0.002-0.334 0.002-7.302 0-13.896-3.029-18.595-7.9l-0.007-0.008c-4.878-4.706-7.907-11.301-7.907-18.602 0-0.117 0.001-0.235 0.002-0.352v0.018-862.772c0.061-14.8 12.042-26.78 26.836-26.841h701.262c14.8 0.061 26.78 12.042 26.841 26.836v862.885c0.001 0.099 0.002 0.217 0.002 0.334 0 7.302-3.029 13.896-7.9 18.595l-0.008 0.007c-4.706 4.878-11.301 7.907-18.602 7.907-0.117 0-0.235-0.001-0.352-0.002h0.018zM565.97 744.478h-377.505c-0.099-0.001-0.217-0.002-0.334-0.002-7.302 0-13.896 3.029-18.595 7.9l-0.007 0.008c-4.878 4.706-7.907 11.301-7.907 18.602 0 0.117 0.001 0.235 0.002 0.352v-0.018c-0.001 0.099-0.002 0.217-0.002 0.334 0 7.302 3.029 13.896 7.9 18.595l0.008 0.007c4.706 4.878 11.301 7.907 18.602 7.907 0.117 0 0.235-0.001 0.352-0.002h377.487c0.099 0.001 0.217 0.002 0.334 0.002 7.302 0 13.896-3.029 18.595-7.9l0.007-0.008c4.878-4.706 7.907-11.301 7.907-18.602 0-0.117-0.001-0.235-0.002-0.352v0.018c0.001-0.099 0.002-0.217 0.002-0.334 0-7.302-3.029-13.896-7.9-18.595l-0.008-0.007c-4.688-4.752-11.198-7.695-18.396-7.695-0.19 0-0.38 0.002-0.569 0.006h0.028zM673.767 636.681h-485.302c-0.099-0.001-0.217-0.002-0.334-0.002-7.302 0-13.896 3.029-18.595 7.9l-0.007 0.008c-4.878 4.706-7.907 11.301-7.907 18.602 0 0.117 0.001 0.235 0.002 0.352v-0.018c-0.001 0.099-0.002 0.217-0.002 0.334 0 7.302 3.029 13.896 7.9 18.595l0.008 0.007c4.706 4.878 11.301 7.907 18.602 7.907 0.117 0 0.235-0.001 0.352-0.002h485.392c0.099 0.001 0.217 0.002 0.334 0.002 7.302 0 13.896-3.029 18.595-7.9l0.007-0.008c4.878-4.706 7.907-11.301 7.907-18.602 0-0.117-0.001-0.235-0.002-0.352v0.018c0.001-0.099 0.002-0.217 0.002-0.334 0-7.302-3.029-13.896-7.9-18.595l-0.008-0.007c-4.706-4.878-11.301-7.907-18.602-7.907-0.117 0-0.235 0.001-0.352 0.002h0.018zM673.767 528.884h-485.302c-0.099-0.001-0.217-0.002-0.334-0.002-7.302 0-13.896 3.029-18.595 7.9l-0.007 0.008c-4.878 4.706-7.907 11.301-7.907 18.602 0 0.117 0.001 0.235 0.002 0.352v-0.018c-0.001 0.099-0.002 0.217-0.002 0.334 0 7.302 3.029 13.896 7.9 18.595l0.008 0.007c4.706 4.878 11.301 7.907 18.602 7.907 0.117 0 0.235-0.001 0.352-0.002h485.392c0.099 0.001 0.217 0.002 0.334 0.002 7.302 0 13.896-3.029 18.595-7.9l0.007-0.008c4.878-4.706 7.907-11.301 7.907-18.602 0-0.117-0.001-0.235-0.002-0.352v0.018c0.001-0.099 0.002-0.217 0.002-0.334 0-7.302-3.029-13.896-7.9-18.595l-0.008-0.007c-4.706-4.878-11.301-7.907-18.602-7.907-0.117 0-0.235 0.001-0.352 0.002h0.018zM457.922 421.087h-269.493c-0.099-0.001-0.217-0.002-0.334-0.002-7.302 0-13.896 3.029-18.595 7.9l-0.007 0.008c-4.878 4.706-7.907 11.301-7.907 18.602 0 0.117 0.001 0.235 0.002 0.352v-0.018c-0.004 0.177-0.007 0.386-0.007 0.596 0 7.39 3.027 14.073 7.908 18.876l0.004 0.003c4.706 4.878 11.301 7.907 18.602 7.907 0.117 0 0.235-0.001 0.352-0.002h269.475c0.099 0.001 0.217 0.002 0.334 0.002 7.302 0 13.896-3.029 18.595-7.9l0.007-0.008c4.885-4.807 7.912-11.49 7.912-18.88 0-0.209-0.002-0.418-0.007-0.626l0.001 0.031c0.001-0.099 0.002-0.217 0.002-0.334 0-7.302-3.029-13.896-7.9-18.595l-0.008-0.007c-4.72-4.984-11.384-8.085-18.772-8.085-0.020 0-0.040 0-0.060 0h0.003zM673.875 205.493h-485.41c-0.032 0-0.071 0-0.109 0-14.804 0-26.806 12.001-26.806 26.806 0 7.465 3.051 14.217 7.975 19.078l0.003 0.003c4.706 4.878 11.301 7.907 18.602 7.907 0.117 0 0.235-0.001 0.352-0.002h485.392c0.011 0 0.023 0 0.036 0 14.804 0 26.806-12.001 26.806-26.806 0-7.429-3.022-14.152-7.904-19.007l-0.001-0.001c-4.712-4.92-11.334-7.978-18.671-7.978-0.093 0-0.187 0-0.28 0.001h0.014zM566.078 97.696h-377.613c-14.834 0-26.859 12.025-26.859 26.859s12.025 26.859 26.859 26.859v0h377.505c14.834 0 26.859-12.025 26.859-26.859s-12.025-26.859-26.859-26.859v0z" />
<glyph unicode="&#xe93d;" glyph-name="5352391" horiz-adv-x="900" d="M620.955 283.433c108.974 170.998 95.249 149.661 98.399 154.123 37.917 52.754 60.637 118.649 60.637 189.85 0 0.214 0 0.429-0.001 0.643v-0.033c0 0.013 0 0.028 0 0.042 0 182.252-147.744 329.996-329.996 329.996s-329.996-147.744-329.996-329.996c0-72.504 23.383-139.547 63.018-193.999l-0.656 0.946 96.674-151.686c-103.349-15.75-279.034-63.112-279.034-167.323 0-37.987 24.787-92.136 142.911-134.323 86.911-29.051 186.98-45.812 290.963-45.812 5.668 0 11.325 0.050 16.97 0.149l-0.849-0.012c216.035 0 449.995 60.937 449.995 179.998 0 104.249-175.498 151.536-279.034 167.435zM232.497 468.119l-1.050 1.5c-32.119 43.879-51.394 98.921-51.394 158.465 0 149.115 120.882 269.997 269.997 269.997s269.997-120.882 269.997-269.997c0-58.296-18.475-112.277-49.89-156.406l0.56 0.829c-2.887-3.75 12.187 19.612-220.722-345.821zM449.995-4.001c-235.985 0-389.995 69.374-389.995 119.999 0 34.050 79.124 89.999 254.509 111.786l110.211-172.91c5.412-8.391 14.713-13.868 25.293-13.868s19.881 5.477 25.222 13.75l0.071 0.118 110.211 172.91c175.348-21.825 254.509-77.774 254.509-111.786-0.037-50.174-152.661-119.999-390.033-119.999zM449.995 778.015c-82.842 0-149.998-67.156-149.998-149.998s67.156-149.998 149.998-149.998c82.842 0 149.998 67.156 149.998 149.998v0c0 82.842-67.156 149.998-149.998 149.998v0zM449.995 538.018c-49.705 0-89.999 40.294-89.999 89.999s40.294 89.999 89.999 89.999c49.705 0 89.999-40.294 89.999-89.999v0c0-49.705-40.294-89.999-89.999-89.999v0z" />
<glyph unicode="&#xe93e;" glyph-name="-357" horiz-adv-x="1280" d="M1183.568 959.893h-927.662c-0.112 0.001-0.243 0.002-0.375 0.002-4.375 0-8.535-0.923-12.295-2.585l0.195 0.077c-4.086-1.855-7.601-4.159-10.706-6.915l0.043 0.038-223.918-224.292c-2.865-2.873-5.187-6.289-6.798-10.080l-0.079-0.209c-1.259-3.252-1.988-7.015-1.988-10.949 0-0.349 0.006-0.698 0.017-1.044l-0.001 0.051v-671.755c-0.009-0.48-0.014-1.046-0.014-1.613 0-26.081 10.763-49.648 28.089-66.502l0.021-0.021c16.874-17.345 40.439-28.106 66.518-28.106 0.475 0 0.949 0.004 1.422 0.011l-0.071-0.001h1087.603c0.464-0.008 1.012-0.013 1.561-0.013 26.080 0 49.647 10.762 66.501 28.088l0.021 0.021c17.223 16.856 27.901 40.34 27.901 66.318 0 0.639-0.006 1.276-0.019 1.912l0.002-0.095v831.697c0.008 0.464 0.013 1.012 0.013 1.561 0 26.080-10.762 49.647-28.088 66.501l-0.021 0.021c-16.856 17.22-40.338 27.896-66.313 27.896-0.547 0-1.093-0.005-1.637-0.014l0.082 0.001zM255.907 882.535v-146.826c0.002-0.125 0.003-0.274 0.003-0.422 0-8.666-3.596-16.492-9.377-22.068l-0.009-0.009c-5.685-5.699-13.547-9.226-22.233-9.226-0.131 0-0.262 0.001-0.392 0.002h-146.433zM1215.557 32.232c0.002-0.125 0.003-0.274 0.003-0.422 0-8.666-3.596-16.492-9.377-22.068l-0.009-0.009c-5.71-5.857-13.677-9.49-22.493-9.49-0.039 0-0.079 0-0.118 0h-639.761c-17.667 0-31.988 14.322-31.988 31.988v127.953c0.002 0.125 0.003 0.274 0.003 0.422 0 8.666-3.596 16.492-9.377 22.068l-0.009 0.009c-5.593 5.854-13.461 9.493-22.179 9.493-0.15 0-0.299-0.001-0.449-0.003h0.023c-0.125 0.002-0.274 0.003-0.422 0.003-8.666 0-16.492-3.596-22.068-9.377l-0.009-0.009c-5.854-5.593-9.493-13.461-9.493-22.179 0-0.15 0.001-0.299 0.003-0.449v0.023-127.953c0.007-5.651 0.453-11.192 1.305-16.598l-0.078 0.603c0.909-5.854 2.434-11.109 4.537-16.059l-0.165 0.438h-357.47c-0.221-0.006-0.48-0.009-0.741-0.009-8.768 0-16.696 3.593-22.393 9.388l-0.004 0.004c-5.475 5.535-8.858 13.15-8.858 21.555 0 0.238 0.003 0.476 0.008 0.712l-0.001-0.035v607.778h159.942c0.464-0.008 1.012-0.013 1.561-0.013 26.080 0 49.647 10.762 66.501 28.088l0.021 0.021c17.216 16.74 27.897 40.122 27.897 65.999 0 0.563-0.005 1.126-0.015 1.687l0.001-0.084v159.942h306.768l-169.325-169.325c-2.865-2.873-5.187-6.289-6.798-10.080l-0.079-0.209c-1.593-3.544-2.548-7.677-2.612-12.026v-287.918c-0.002-0.125-0.003-0.274-0.003-0.422 0-8.666 3.596-16.492 9.377-22.068l0.009-0.009c5.593-5.854 13.461-9.493 22.179-9.493 0.15 0 0.299 0.001 0.449 0.003h-0.023c0.125-0.002 0.274-0.003 0.422-0.003 8.666 0 16.492 3.596 22.068 9.377l0.009 0.009c5.852 5.593 9.49 13.46 9.49 22.176 0 0.057 0 0.114 0 0.171v-0.009 224.185h159.942c0.464-0.008 1.012-0.013 1.561-0.013 26.080 0 49.647 10.762 66.501 28.088l0.021 0.021c17.34 16.757 28.106 40.222 28.106 66.201 0 0.455-0.003 0.909-0.010 1.363l0.001-0.069v159.942h415.635c0.221 0.006 0.48 0.009 0.741 0.009 8.768 0 16.696-3.593 22.393-9.388l0.004-0.004c5.79-5.584 9.386-13.411 9.386-22.077 0-0.148-0.001-0.296-0.003-0.444v0.022zM703.743 882.535v-146.826c0.002-0.125 0.003-0.274 0.003-0.422 0-8.666-3.596-16.492-9.377-22.068l-0.009-0.009c-5.584-5.79-13.411-9.386-22.077-9.386-0.148 0-0.296 0.001-0.444 0.003h-147.018zM982.149 310.85l-127.953 127.953c-5.576 5.728-13.36 9.281-21.975 9.281-0.184 0-0.368-0.002-0.551-0.005h0.028c-0.125 0.002-0.274 0.003-0.422 0.003-8.666 0-16.492-3.596-22.068-9.377l-0.009-0.009c-5.855-5.652-9.491-13.569-9.491-22.336 0-0.095 0-0.189 0.001-0.283v0.014c-0.003-0.173-0.005-0.377-0.005-0.581 0-8.717 3.594-16.594 9.382-22.231l73.1-73.154h-612.897l73.093 73.2c5.856 5.652 9.493 13.57 9.493 22.338 0 0.15-0.001 0.3-0.003 0.45v-0.023c0.003 0.173 0.005 0.377 0.005 0.581 0 8.717-3.594 16.594-9.382 22.231l-0.007 0.007c-5.567 5.667-13.311 9.179-21.875 9.179-0.257 0-0.513-0.003-0.768-0.009l0.038 0.001c-0.125 0.002-0.274 0.003-0.422 0.003-8.666 0-16.492-3.596-22.068-9.377l-127.962-127.962c-5.855-5.652-9.491-13.569-9.491-22.336 0-0.095 0-0.189 0.001-0.283v0.014c-0.003-0.173-0.005-0.377-0.005-0.581 0-8.717 3.594-16.594 9.382-22.231l0.007-0.007 128.060-127.527c2.723-3.173 6.183-5.638 10.118-7.14l0.172-0.058c3.613-1.455 7.799-2.33 12.181-2.399h0.028c4.41 0.069 8.596 0.944 12.445 2.482l-0.236-0.083c4.107 1.559 7.566 4.024 10.262 7.164l0.028 0.033c5.852 5.593 9.491 13.46 9.491 22.177 0 0.076 0 0.151-0.001 0.227v-0.012c0.002 0.125 0.003 0.274 0.003 0.422 0 8.666-3.596 16.492-9.377 22.068l-73.209 73.209h613.11l-73.307-73.093c-5.791-5.585-9.388-13.411-9.388-22.078 0-0.185 0.002-0.37 0.005-0.555v0.028c-0.002-0.125-0.003-0.274-0.003-0.422 0-8.666 3.596-16.492 9.377-22.068l0.009-0.009c2.723-3.173 6.183-5.638 10.118-7.14l0.172-0.058c3.654-1.435 7.884-2.274 12.308-2.292h0.008c0.011 0 0.025 0 0.038 0 4.371 0 8.554 0.802 12.411 2.266l-0.24-0.080c4.081 1.634 7.505 4.167 10.149 7.368l0.034 0.042 127.953 127.474c5.92 5.66 9.599 13.621 9.599 22.44 0 0.152-0.001 0.303-0.003 0.454v-0.023c0.001 0.111 0.002 0.243 0.002 0.374 0 8.767-3.636 16.686-9.483 22.329l-0.009 0.009z" />
<glyph unicode="&#xe93f;" glyph-name="659998" d="M424.533 179.499l-120.661-120.661c-23.088-22.731-54.795-36.767-89.78-36.767-70.692 0-128 57.308-128 128 0 34.974 14.027 66.673 36.762 89.776l241.348 241.348c23.162 23.155 55.157 37.477 90.496 37.477s67.334-14.321 90.496-37.477v0c7.769-8.036 18.647-13.026 30.69-13.026 23.564 0 42.667 19.103 42.667 42.667 0 12.043-4.989 22.92-13.014 30.678l-0.012 0.012c-38.604 38.592-91.928 62.461-150.827 62.461s-112.223-23.869-150.827-62.462l-241.365-241.365c-37.464-38.403-60.574-90.96-60.574-148.915 0-117.821 95.513-213.333 213.333-213.333 57.965 0 110.531 23.118 148.98 60.637l-0.043-0.042 120.661 120.661c8.036 7.769 13.026 18.647 13.026 30.69 0 23.564-19.103 42.667-42.667 42.667-12.043 0-22.92-4.989-30.678-13.014l-0.012-0.012zM961.493 595.84c37.464 38.403 60.574 90.96 60.574 148.915 0 117.821-95.513 213.333-213.333 213.333-57.965 0-110.531-23.118-148.98-60.637l0.043 0.042-144.768-144.768c-8.036-7.769-13.026-18.647-13.026-30.69 0-23.564 19.103-42.667 42.667-42.667 12.043 0 22.92 4.989 30.678 13.014l144.78 144.78c23.235 23.611 55.536 38.241 91.254 38.241 70.692 0 128-57.308 128-128 0-35.707-14.621-68-38.203-91.217l-265.488-265.488c-23.162-23.155-55.157-37.477-90.496-37.477s-67.334 14.321-90.496 37.477v0c-7.769 8.036-18.647 13.026-30.69 13.026-23.564 0-42.667-19.103-42.667-42.667 0-12.043 4.989-22.92 13.014-30.678l0.012-0.012c38.604-38.592 91.928-62.461 150.827-62.461s112.223 23.869 150.827 62.462l-0.001-0.001zM798.208 222.123c-7.665 7.41-18.12 11.977-29.641 11.977-23.564 0-42.667-19.103-42.667-42.667 0-11.521 4.567-21.976 11.989-29.653l127.988-127.988c7.665-7.41 18.12-11.977 29.641-11.977 23.564 0 42.667 19.103 42.667 42.667 0 11.521-4.567 21.976-11.989 29.653l0.012-0.012zM225.92 673.749c7.665-7.41 18.12-11.977 29.641-11.977 23.564 0 42.667 19.103 42.667 42.667 0 11.521-4.567 21.976-11.989 29.653l-127.988 127.988c-7.665 7.41-18.12 11.977-29.641 11.977-23.564 0-42.667-19.103-42.667-42.667 0-11.521 4.567-21.976 11.989-29.653l-0.012 0.012zM981.333 320h-128c-23.564 0-42.667-19.103-42.667-42.667s19.103-42.667 42.667-42.667v0h128c23.564 0 42.667 19.103 42.667 42.667s-19.103 42.667-42.667 42.667v0zM341.333 746.667c23.564 0 42.667 19.103 42.667 42.667v0 128c0 23.564-19.103 42.667-42.667 42.667v0c-23.564 0-42.667-19.103-42.667-42.667v0-128c0-23.564 19.103-42.667 42.667-42.667v0zM42.539 576h128c23.564 0 42.667 19.103 42.667 42.667s-19.103 42.667-42.667 42.667v0h-128c-23.564 0-42.667-19.103-42.667-42.667s19.103-42.667 42.667-42.667v0zM682.539 149.333c-23.564 0-42.667-19.103-42.667-42.667v0-128c0-23.564 19.103-42.667 42.667-42.667s42.667 19.103 42.667 42.667v0 128c0 23.564-19.103 42.667-42.667 42.667v0z" />
<glyph unicode="&#xe940;" glyph-name="-358" horiz-adv-x="870" d="M794.027 755.029h-128v128c0.007 0.372 0.011 0.81 0.011 1.249 0 20.872-8.613 39.732-22.479 53.22l-0.017 0.016c-13.49 13.784-32.284 22.33-53.075 22.33-0.526 0-1.051-0.005-1.574-0.016l0.078 0.001h-384c-3.531-0.003-6.889-0.741-9.931-2.068l0.161 0.062c-3.201-1.353-5.935-3.211-8.235-5.505l-179.455-179.327c-2.293-2.299-4.151-5.033-5.441-8.067l-0.063-0.168c-1.162-2.777-1.837-6.005-1.837-9.39 0-0.119 0.001-0.238 0.002-0.356v0.018-537.6c-0.007-0.372-0.011-0.81-0.011-1.249 0-20.872 8.613-39.732 22.479-53.22l0.017-0.016c13.49-13.781 32.282-22.325 53.070-22.325 0.438 0 0.874 0.004 1.31 0.011l-0.065-0.001h128v-128c0 0 0 0 0 0 0-42.415 34.385-76.8 76.8-76.8 0.090 0 0.18 0 0.27 0h511.986c42.305 0.146 76.544 34.474 76.544 76.8 0 0 0 0 0 0v0 665.6c0.007 0.372 0.011 0.81 0.011 1.249 0 20.872-8.613 39.732-22.479 53.22l-0.017 0.016c-13.397 13.777-32.109 22.325-52.818 22.325-0.436 0-0.872-0.004-1.306-0.011l0.065 0.001zM204.971 897.963v-117.333c0.001-0.1 0.002-0.219 0.002-0.338 0-6.935-2.878-13.198-7.504-17.661l-0.007-0.007c-4.476-4.685-10.773-7.597-17.75-7.597-0.12 0-0.24 0.001-0.359 0.003h-117.315zM76.971 191.829c-0.052 0-0.113-0.001-0.174-0.001-6.997 0-13.309 2.929-17.779 7.628l-0.010 0.010c-4.709 4.479-7.638 10.792-7.638 17.788 0 0.061 0 0.122 0.001 0.184v-0.009 486.4h128c0.308-0.005 0.672-0.007 1.036-0.007 20.791 0 39.57 8.616 52.96 22.472l0.020 0.021c14.055 13.435 22.791 32.331 22.791 53.267 0 0.368-0.003 0.736-0.008 1.103l0.001-0.055v128h332.8c0.1 0.001 0.219 0.002 0.338 0.002 6.935 0 13.198-2.878 17.661-7.504l0.007-0.007c4.634-4.469 7.512-10.732 7.512-17.668 0-0.119-0.001-0.237-0.003-0.356v0.018-128h-204.459c-0.089 0.001-0.195 0.002-0.3 0.002-3.501 0-6.83-0.739-9.839-2.069l0.156 0.061c-3.27-1.485-6.083-3.328-8.568-5.534l0.035 0.030-179.2-179.2c-2.176-2.45-4.019-5.264-5.418-8.323l-0.086-0.21c-1.269-2.853-2.007-6.182-2.007-9.684 0-0.106 0.001-0.211 0.002-0.316v0.016-358.059zM409.771 692.821v-116.992c0.004-0.177 0.007-0.384 0.007-0.593 0-7.017-2.876-13.362-7.513-17.921l-0.004-0.003c-4.563-4.641-10.908-7.516-17.924-7.516-0.208 0-0.416 0.003-0.624 0.008l0.031-0.001h-116.736zM819.371 12.629c0-14.138-11.462-25.6-25.6-25.6v0h-512c-0.177-0.004-0.384-0.007-0.593-0.007-7.017 0-13.362 2.876-17.921 7.513l-0.003 0.004c-4.387 4.431-7.097 10.528-7.097 17.258 0 0.293 0.005 0.584 0.015 0.874l-0.001-0.042v486.4h128c0.372-0.007 0.81-0.011 1.249-0.011 20.872 0 39.732 8.613 53.22 22.479l0.016 0.017c13.781 13.49 22.325 32.282 22.325 53.070 0 0.438-0.004 0.874-0.011 1.31l0.001-0.065v128h332.8c0.1 0.001 0.219 0.002 0.338 0.002 6.935 0 13.198-2.878 17.661-7.504l0.007-0.007c4.641-4.563 7.516-10.908 7.516-17.924 0-0.208-0.003-0.416-0.008-0.624l0.001 0.031z" />
</font>
</defs>
</svg>
